<?xml version="1.0" standalone="no"?>
<!DOCTYPE svg PUBLIC "-//W3C//DTD SVG 1.1//EN" "http://www.w3.org/Graphics/SVG/1.1/DTD/svg11.dtd" >
<svg xmlns="http://www.w3.org/2000/svg">
<metadata>
This is a custom SVG font generated by IcoMoon.
<iconset grid="16"></iconset>
</metadata>
<defs>
<font id="Elusive-Icons" horiz-adv-x="512" >
<font-face units-per-em="512" ascent="480" descent="-32" />
<missing-glyph horiz-adv-x="512" />
<glyph unicode="&#xe000;" d="M0.00,480.00,M-374.218,542.236,m 886.218-517.202 -94.643,94.643 c 25.946,37.149 41.277,82.259 41.277,131.006 0.00,126.649 -102.701,229.317 -229.317,229.317 -126.616,0.00 -229.317-102.669 -229.317-229.317 0.00-126.649 102.669-229.317 229.317-229.317 48.746,0.00 93.889,15.331 131.038,41.277 l 94.643-94.643 z M 229.284,86.852 c -90.449,0.00 -163.798,73.316 -163.798,163.798 0.00,90.482 73.349,163.798 163.798,163.798 90.482,0.00 163.798-73.316 163.798-163.798 0.033-90.482 -73.283-163.798 -163.798-163.798 z m -98.279,131.071 196.558,0.00 0.00,65.519 -196.558,0.00 z"  />
<glyph unicode="&#xe001;" d="M0.00,480.00,M-374.218,542.236,m 636.262-193.275 -65.519,0.00 0.00-65.519 -65.519,0.00 0.00-65.519 65.519,0.00 0.00-65.519 65.519,0.00 0.00,65.519 65.519,0.00 0.00,65.519 -65.519,0.00 z m 249.956-323.927 -94.643,94.643 c 25.946,37.149 41.277,82.259 41.277,131.006 0.00,126.649 -102.701,229.317 -229.317,229.317 -126.616,0.00 -229.317-102.669 -229.317-229.317 0.00-126.649 102.669-229.317 229.317-229.317 48.746,0.00 93.889,15.332 131.038,41.277 l 94.643-94.643 z M 229.284,86.851 c -90.449,0.00 -163.798,73.316 -163.798,163.798 0.00,90.482 73.349,163.798 163.798,163.798 90.482,0.00 163.798-73.316 163.798-163.798 0.033-90.482 -73.283-163.798 -163.798-163.798 z"  />
<glyph unicode="&#xe002;" d="M 512.00,29.679 0.00,29.68 l 0.00,388.64 512.00,0.00 z M 182.311,110.464 361.348,222.908 182.311,335.351 z"  />
<glyph unicode="&#xe003;" d="M0.00,480.00,M 0.00,480.00,M 256.00,480.00 C 114.615,480.00 0.00,365.385 0.00,224.00 0.00,82.615 114.615-32.00 256.00-32.00 397.385-32.00 512.00,82.615 512.00,224.00 512.00,365.385 397.385,480.00 256.00,480.00 z m 69.719-102.344 c 9.698,0.027 19.421-1.615 28.656-4.938 l -50.969-50.969 14.063-36.281 36.281-14.063 50.969,50.969 c 10.633-29.552 4.117-63.914 -19.563-87.594 -23.679-23.679 -58.01-30.196 -87.563-19.563 l -144.906-144.875 -50.344,50.344 144.875,144.906 c -10.633,29.552 -4.117,63.883 19.563,87.563 16.279,16.279 37.601,24.44 58.938,24.50 z M 141.906,130.812 c -5.778-5.778 -5.778-15.128 0.00-20.906 5.778-5.778 15.128-5.778 20.906,0.00 5.778,5.778 5.778,15.128 0.00,20.906 -6.263,5.693 -15.509,5.234 -20.906,0.00 z"  />
<glyph unicode="&#xe004;" d="M 419.879,471.763 C 370.643,489.479 313.436,478.619 273.985,439.168 c -39.451-39.451 -50.311-96.658 -32.595-145.893 l -241.391-241.391 83.884-83.884 241.391,241.391 c 49.235-17.716 106.442-6.856 145.893,32.595 39.451,39.451 50.311,96.658 32.595,145.893 L 418.876,302.992 358.414,326.414 334.992,386.876 419.879,471.763 z M 100.77,68.77 c 9.627-9.627 9.627-25.234 0.00-34.861 -9.627-9.627 -25.234-9.627 -34.861,0.00 -9.627,9.627 -9.627,25.234 0.00,34.861 9.627,9.627 25.234,9.627 34.861,0.00 z"  />
<glyph unicode="&#xe005;" d="M0.00,480.00,M-374.218,542.236,M 255.707-32.00 C 112.743-29.252 0.999,87.941 0.00,224.292 2.78,367.15 119.351,479.00 255.707,480.00 398.574,477.144 510.999,360.832 512.00,224.292 509.176,81.32 392.242-30.999 255.707-32.00 z m 0.00,493.861 C 122.964,459.246 18.478,351.047 17.554,224.292 20.136,91.443 128.958-12.937 255.707-13.861 388.557-11.279 492.937,97.542 493.86,224.292 491.355,357.134 382.274,460.938 255.707,461.86 z m -61.44-447.049 65.536,188.416 68.462-184.32 c -46.124-15.44 -89.729-16.376 -133.998-4.096 z M 143.945,347.757 c -23.992-3.261 -47.324-4.424 -70.217-3.511 43.468,62.144 113.065,97.106 181.979,97.719 56.367-1.067 108.915-22.374 147.456-57.344 -17.874,1.321 -28.577-6.518 -36.279-19.895 -11.193-34.534 12.459-60.097 25.746-86.016 12.563-23.682 11.567-50.611 4.681-73.728 L 364.544,93.22 285.55,327.862 c 8.231,0.766 16.516,1.013 23.991,2.341 8.848,1.97 10.789,10.203 4.681,15.214 -1.95,1.561 -4.096,2.341 -6.437,2.341 l -47.397-3.511 -35.986,0.00 c -10.16-0.60 -38.848,9.215 -41.253-4.096 -1.242-5.127 2.585-9.146 7.022-9.947 7.827-1.014 16.796-2.166 23.991-2.926 l 34.523-92.453 -47.982-141.605 -79.579,234.642 c 8.421,0.731 16.953,0.986 24.576,2.341 6.242,0.782 8.972,3.903 8.192,9.362 -1.107,4.854 -5.433,8.134 -9.947,8.192 z m -87.771-36.279 104.741-283.209 C 123.121,46.897 93.243,74.291 71.972,106.971 33.062,169.065 28.969,247.841 56.174,311.478 z m 409.307-145.408 c -17.196-56.153 -52.317-102.662 -100.937-130.779 2.341,6.242 6.046,16.774 11.118,31.598 l 60.855,176.713 c 5.851,17.164 9.947,36.279 12.288,57.344 0.79,8.618 0.816,17.308 -0.585,25.161 24.934-53.778 32.008-107.047 17.262-160.037 z"  />
<glyph unicode="&#xe006;" d="M0.00,480.00,M -14.626,52.149,m 369.383,77.046 c 12.85-3.884 19.606-13.656 16.939-25.682 C 369.875,95.863 367.689,88.942 365.139,82.749 351.382,47.453 328.612,19.147 299.568-0.581 267.232-21.321 231.772-31.805 196.294-32.00 147.652-30.979 102.397-12.233 69.797,18.817 36.161,52.654 17.396,97.507 17.067,141.216 c 0.848,36.88 11.908,70.458 31.693,98.356 22.451,29.885 51.413,51.406 83.603,63.932 12.287,2.961 24.419-1.666 28.961-12.568 3.82-12.323 -2.113-23.713 -13.114-27.321 C 122.103,252.918 100.676,236.508 85.37,215.257 69.762,192.295 61.48,166.925 61.327,141.216 62.121,105.152 77.063,72.023 100.943,48.87 128.735,23.992 161.883,10.866 196.294,10.621 c 28.935,0.653 55.60,8.901 77.866,24.043 22.901,16.519 40.172,37.756 49.451,62.292 2.186,5.10 3.825,10.382 4.918,15.846 4.086,12.541 14.54,18.983 26.228,16.393 z M 492.456,45.592 c 4.979-10.651 2.047-22.871 -5.191-30.053 -15.087-12.537 -35.871-8.933 -43.987,8.196 L 371.15,149.413 c -42.784,0.519 -88.186-0.431 -130.049-0.546 -18.223,1.133 -31.872,11.828 -34.971,28.414 l -30.053,144.803 0.546,0.00 c -2.335,11.57 4.964,25.977 11.475,32.512 8.014,7.832 17.85,11.748 29.507,11.748 9.471,0.00 17.759-2.732 24.862-8.196 16.881-15.036 16.195-28.313 20.491-50.271 l 85.242,0.00 c 9.752-0.374 18.101-7.788 20.491-15.846 3.253-16.493 -8.06-28.483 -23.769-27.321 l -72.674,0.00 10.928-53.55 92.892,0.00 c 14.88-0.731 26.762-7.756 32.785-20.218 L 492.456,45.592 z M 203.397,377.818 c -29.432,1.083 -51.161,23.033 -51.364,51.364 1.194,29.115 23.374,50.617 51.364,50.818 29.017-1.286 50.619-22.601 50.818-50.818 -1.325-29.411 -24.609-51.009 -50.818-51.364 z"  />
<glyph unicode="&#xe007;" d="M-374.218,542.236,m 630.218-62.236 c -141.385,0.00 -256.00-114.615 -256.00-256.00 0.00-141.385 114.615-256.00 256.00-256.00 141.385,0.00 256.00,114.615 256.00,256.00 0.00,141.385 -114.615,256.00 -256.00,256.00 z m -136.041-128.697 272.065,0.00 0.00-254.606 -272.065,0.00 z m 33.54-33.264 0.00-188.093 205.001,0.00 0.00,188.093 z m 22.355-23.992 159.741,0.00 0.00-83.404 -159.741,0.00 z m 0.00-97.864 45.244,0.00 0.00-45.244 -45.244,0.00 z m 57.24,0.00 45.26,0.00 0.00-45.244 -45.26,0.00 z m 57.24,0.00 45.26,0.00 0.00-45.244 -45.26,0.00 z"  />
<glyph unicode="&#xe008;" d="M0.00,480.00,M -0.513,70.092,m 298.581,16.417 -85.162,0.00 0.00,85.162 85.162,0.00 z m 107.735,0.00 -85.162,0.00 0.00,85.162 85.162,0.00 z m -215.471,0.00 -85.162,0.00 0.00,85.162 85.162,0.00 z m 215.471,269.339 0.00-156.986 -300.633,0.00 0.00,156.986 z m 43.094,45.146 -385.796,0.00 0.00-353.988 385.796,0.00 z M 0.00-15.583 l 0.00,479.166 512.00,0.00 0.00-479.166 z"  />
<glyph unicode="&#xe009;" d="M 256.00,480.00 L 0.00-32.00 L 512.00-32.00 L 256.00,480.00 z M 236.313,302.469 L 275.688,302.469 L 275.688,234.781 L 266.063,139.594 L 245.938,139.594 L 236.313,234.781 L 236.313,302.469 z M 236.313,102.219 L 275.688,102.219 L 275.688,59.812 L 236.313,59.812 L 236.313,102.219 z "  />
<glyph unicode="&#xe00a;" d="M0.00,480.00,M -36.864,50.505,m 495.031,160.914 c 1.237,4.967 -0.037,10.075 -4.681,11.703 l -19.31,8.777 c -4.772,1.992 -10.846-0.699 -11.703-5.266 -3.727-7.979 -9.011-14.511 -17.554-14.629 -7.412,0.00 -13.458,3.998 -18.139,11.995 -4.681,7.997 -7.022,18.432 -7.022,31.305 0.00,12.873 2.341,23.406 7.022,31.598 4.681,8.192 10.727,12.288 18.139,12.288 9.35-0.679 13.787-6.584 17.554-14.043 1.997-4.90 7.43-6.051 11.703-4.681 l 19.31,8.777 c 4.472,2.354 6.464,8.181 4.096,12.288 -11.313,24.186 -28.867,36.279 -52.663,36.279 -19.895,0.00 -35.986-7.607 -48.274-22.821 -12.288-15.214 -18.432-35.109 -18.432-59.685 0.00-24.576 6.144-44.373 18.432-59.392 12.288-15.019 28.379-22.528 48.274-22.528 23.796,0.00 41.545,12.678 53.248,38.034 z M 272.091,173.385 c 31.017,0.48 54.636,21.792 55.003,49.737 -0.548,14.757 -6.482,26.236 -16.969,35.109 9.235,8.72 14.537,20.597 14.629,32.183 -0.768,31.621 -27.068,46.559 -52.663,46.811 -22.235,0.00 -39.399-8.777 -51.493-26.331 -2.731-3.902 -2.341-7.803 1.17-11.703 l 14.043-12.873 c 4.502-4.013 9.509-3.271 13.458,0.585 5.851,8.192 12.873,12.288 21.065,12.288 6.631,0.00 10.533-1.658 11.703-4.974 2.256-4.92 1.608-9.408 0.00-13.458 -6.035-6.249 -14.856-4.389 -23.406-4.389 -5.561-0.187 -9.862-3.448 -9.947-8.777 l 0.00-21.065 c 0.485-6.043 4.604-10.035 9.947-8.777 6.45,0.006 22.807,0.736 25.454-4.681 1.365-3.121 2.048-5.657 2.048-7.607 0.00-8.972 -4.876-13.458 -14.629-13.458 -9.362,0.00 -17.164,4.291 -23.406,12.873 -3.818,4.62 -9.85,4.687 -13.458,1.17 l -14.629-14.629 c -3.511-3.511 -3.901-7.217 -1.17-11.118 13.261-18.655 32.567-26.753 53.248-26.917 z m -57.929,150.967 c 1.069,5.609 -3.061,11.019 -8.192,11.118 l -25.746,0.00 c -4.681,0.00 -7.412-2.341 -8.192-7.022 L 159.744,265.838 146.871,328.448 c -1.17,4.681 -4.096,7.022 -8.777,7.022 l -18.725,0.00 c -5.072,0.00 -7.998-2.341 -8.777-7.022 L 97.719,265.838 85.431,328.448 c -0.78,4.681 -3.706,7.022 -8.777,7.022 l -25.161,0.00 c -6.413-0.505 -9.496-5.576 -8.777-11.118 l 32.183-141.605 c 1.17-4.681 4.096-7.022 8.777-7.022 l 24.576,0.00 c 4.681,0.00 7.607,2.341 8.777,7.022 l 11.703,58.514 11.703-58.514 c 0.78-4.681 3.706-7.022 8.777-7.022 l 24.576,0.00 c 4.681,0.00 7.607,2.341 8.777,7.022 z M 512.00,480.00 512.00,88.00 256.00-32.00 0.00,88.00 0.00,480.00 z"  />
<glyph unicode="&#xe00b;" d="M-374.218,542.236,m 374.218-228.229 104.028,0.00 156.495,127.548 0.00-438.728 -156.495,127.548 -104.028,0.00 z m 319.321,20.806 c 30.756-30.756 46.436-68.146 47.039-112.17 0.00-42.214 -15.68-78.398 -47.039-108.551 l -31.661,32.565 c 21.71,21.71 32.565,47.34 32.565,76.89 0.00,30.153 -10.855,56.386 -32.565,78.70 l 31.661,32.565 z m 54.276,53.371 c 45.23-45.23 67.845-99.807 67.845-163.731 0.00-63.925 -22.615-118.803 -67.845-164.636 l -33.47,33.47 c 36.184,35.581 54.276,79.152 54.276,130.714 0.00,51.562 -18.092,95.435 -54.276,131.618 z m 49.753,49.753 c 27.741-27.741 49.451-60.005 65.131-96.791 15.68-36.787 23.519-75.684 23.519-116.692 0.00-41.008 -7.84-80.056 -23.519-117.145 -15.68-37.088 -37.39-69.503 -65.131-97.244 l -32.565,32.565 c 50.054,50.054 75.081,110.511 75.081,181.371 0.00,70.86 -25.027,131.317 -75.081,181.371 z"  />
<glyph unicode="&#xe00c;" d="M 277.115,176.488,m 144.751,12.511 q 1.109-1.109 1.109-2.613 Q 422.974,184.882 421.866,183.773 L 397.318,159.226 q -1.109-1.109 -2.534-1.109 -1.267,0.00 -2.692,1.109 L 357.092,194.226 322.092,159.226 q -1.109-1.109 -2.534-1.109 -1.267,0.00 -2.692,1.109 L 292.319,183.773 q -0.95,0.95 -0.95,2.692 0.00,1.584 0.95,2.534 L 327.318,223.999 292.477,258.999 q -1.109,0.95 -1.109,2.534 0.00,1.742 1.109,2.692 l 24.389,24.547 q 1.109,1.109 2.692,1.109 1.584,0.00 2.534-1.109 L 357.092,253.773 392.092,288.773 q 1.109,1.109 2.613,1.109 1.505,0.00 2.613-1.109 L 421.866,264.225 q 1.109-1.109 1.109-2.613 0.00-1.505 -1.109-2.613 L 386.866,223.999 z m -421.866,127.573 l 104.886,0.00  l 157.785,128.60 l 0.00-442.346  l -157.785,128.60 l -104.886,0.00  L -35.00,316.573  z"  />
<glyph unicode="&#xe00d;" d="M-374.218,542.236,m 374.218-225.663 104.886,0.00 157.785,128.60 0.00-442.346 -157.785,128.60 -104.886,0.00 z m 321.955,20.977 c 31.01-31.01 46.819-68.708 47.427-113.095 0.00-42.563 -15.809-79.045 -47.427-109.446 l -31.922,32.834 c 21.889,21.889 32.834,47.731 32.834,77.525 0.00,30.402 -10.945,56.851 -32.834,79.349 z"  />
<glyph unicode="&#xe00e;" d="M -14.613,61.632,m 421.074,282.52 c -52.879,43.701 -123.116-16.02 -139.636-63.865 10.187-0.175 21.842,0.884 30.579-2.436 13.491-7.298 13.679-21.364 12.719-33.285 -6.015-26.379 -24.708-74.379 -48.71-78.207 -5.051-0.541 -10.283,2.255 -15.696,8.389 -20.977,26.277 -18.379,60.844 -23.273,89.844 -4.579,24.261 -8.032,73.226 -36.803,83.89 -31.69,3.87 -59.518-19.742 -79.831-38.427 -12.448-11.546 -25.167-22.551 -38.156-33.015 l 0.00-2.165 c 3.09-3.716 5.595-7.505 8.389-11.095 4.741-4.772 13.392-3.604 18.672-1.894 19.198,4.991 25.945,9.883 36.262-8.389 C 146.524,211.467 158.295,164.097 168.592,123.873 175.789,100.93 185.28,71.628 208.372,62.173 c 14.267-6.062 38.878,2.084 49.793,8.66 46.711,29.509 82.857,76.728 108.786,122.317 18.93,38.413 65.995,114.836 39.51,151.002 z m 105.539,135.848 0.00-512.00 -512.00,0.00 0.00,512.00 z"  />
<glyph unicode="&#xe00f;" d="M 473.875,480.00 L 0.00,5.562 L 38.125-32.00 L 512.00,441.844 L 473.875,480.00 z M 0.00,479.25 L 0.00,359.219 L 120.00,359.219 L 120.00,479.219 L 0.00,479.25 z M 141.406,479.25 L 141.406,359.219 L 261.406,359.219 L 261.406,479.219 L 141.406,479.25 z M 0.00,335.594 L 0.00,215.594 L 120.00,215.594 L 120.00,335.594 L 0.00,335.594 z M 141.406,335.594 L 141.406,215.594 L 261.406,335.594 L 141.406,335.594 z M 352.313,208.50 L 278.313,141.094 L 512.00,141.094 L 512.00,208.50 L 352.313,208.50 z M 262.313,122.312 L 262.313,54.906 L 512.00,54.906 L 512.00,122.312 L 262.313,122.312 z M 262.313,36.125 L 262.313-31.25 L 512.00-31.25 L 512.00,36.125 L 262.313,36.125 z "  />
<glyph unicode="&#xe010;" d="M-374.218,542.236,m 374.218-83.189 0.00-364.594 105.50,0.00 0.00-105.50 164.469,105.50 242.031,0.00 0.00,364.594 -512.00,0.00 z m 112.25-91.594 206.25,0.00 0.00-63.594 81.25,63.594 0.00-170.00 -81.25,63.594 0.00-63.594 -206.25,0.00 0.00,170.00 z"  />
<glyph unicode="&#xe011;" d="M0.00,480.00,M 0.00,480.00,M 256.00,480.00 C 114.615,480.00 0.00,365.385 0.00,224.00 0.00,82.615 114.615-32.00 256.00-32.00 397.385-32.00 512.00,82.615 512.00,224.00 512.00,365.385 397.385,480.00 256.00,480.00 z m -152.625-140.50 305.219,0.00 0.00-231.00 -305.219,0.00 z m 37.438-37.438 0.00-156.125 230.375,0.00 0.00,156.125 z M 221.75,274.875 311.656,223.031 221.75,170.875 z"  />
<glyph unicode="&#xe012;" d="M 0.00,480.00,m 0.00-62.25 0.00-387.50 512.00,0.00 0.00,387.50 z m 62.781-62.813 386.438,0.00 0.00-261.875 -386.438,0.00 z m 135.781-45.594 0.00-174.438 L 349.375,222.375 z"  />
<glyph unicode="&#xe013;" d="M-374.218,542.236,m 775.103-428.48 c -67.132,24.456 -88.592,45.10 -88.592,89.30 0.00,26.526 21.996,43.717 29.494,66.451 7.498,22.734 11.836,49.65 15.442,69.229 3.605,19.579 5.038,27.152 6.999,48.014 2.397,26.036 -15.033,93.249 -108.228,93.249 -93.168,0.00 -110.652-67.214 -108.201-93.249 1.961-20.861 3.401-28.435 6.999-48.014 3.598-19.579 7.893-46.493 15.387-69.229 7.494-22.736 29.522-39.925 29.522-66.451 0.00-44.201 -21.46-64.844 -88.592-89.30 -67.377-24.511 -111.115-48.681 -111.115-65.757 0.00-17.049 0.00-80.00 0.00-80.00 l 512.00,0.00 c 0.00,0.00 0.00,62.951 0.00,80.00 0.00,17.049 -43.765,41.219 -111.115,65.757 z"  />
<glyph unicode="&#xe014;" d="M-374.218,542.236,m 630.218-574.236 c -141.384,0.00 -256.00,114.616 -256.00,256.00 0.00,141.384 114.616,256.00 256.00,256.00 141.384,0.00 256.00-114.616 256.00-256.00 0.00-141.384 -114.616-256.00 -256.00-256.00 z m 0.00,456.348 c -110.664,0.00 -200.348-89.711 -200.348-200.348 0.00-110.637 89.683-200.348 200.348-200.348 110.664,0.00 200.348,89.711 200.348,200.348 0.00,110.637 -89.683,200.348 -200.348,200.348 z m 50.087-307.478 -100.174,0.00 0.00,113.809 -62.609,0.00 112.696,106.017 112.696-106.017 -62.609,0.00 0.00-113.809 z"  />
<glyph unicode="&#xe015;" d="M-374.218,542.236,m 630.218-62.236 c -141.385,0.00 -256.00-114.615 -256.00-256.00 0.00-141.385 114.615-256.00 256.00-256.00 141.385,0.00 256.00,114.615 256.00,256.00 0.00,141.385 -114.615,256.00 -256.00,256.00 z m 3.583-90.65 c 47.828,1.937 82.812-39.787 84.523-83.35 l -49.751,0.00 c -1.851,19.52 -15.669,34.072 -34.772,33.307 -19.103-0.765 -34.347-15.813 -34.756-34.772 l 0.00-39.246 155.234,0.00 0.00-156.434 -248.138,0.00 0.00,156.434 42.861,0.00 0.00,39.246 c 4.044,48.393 36.971,82.878 84.798,84.815 z"  />
<glyph unicode="&#xe016;" d="M-374.218,542.236,m 856.68-288.698 0.00-285.538 -452.924,0.00 0.00,285.538 78.223,0.00 0.00,71.658 c 1.089,42.255 17.904,81.493 45.402,109.402 13.857,13.857 30.177,24.889 48.957,33.094 18.781,8.205 38.929,12.308 60.444,12.308 41.857-0.852 80.232-17.872 108.034-44.581 29.35-29.821 45.289-69.229 46.222-107.487 l -90.803,0.00 c -0.555,17.821 -7.004,30.358 -18.598,42.119 -12.989,12.202 -28.439,18.481 -44.855,18.598 -17.821-0.555 -33.093-7.004 -44.855-18.598 -12.202-12.989 -18.481-28.439 -18.598-44.855 l 0.00-71.658 z"  />
<glyph unicode="&#xe017;" d="M0.00,480.00,M-374.218,542.236,m 630.218-62.236 c -141.385,0.00 -256.00-114.615 -256.00-256.00 0.00-141.385 114.615-256.00 256.00-256.00 141.385,0.00 256.00,114.615 256.00,256.00 0.00,141.385 -114.615,256.00 -256.00,256.00 z m 0.00-34.205 c 122.499,0.00 221.795-99.297 221.795-221.795 0.00-122.499 -99.297-221.812 -221.795-221.812 -122.499,0.00 -221.812,99.313 -221.812,221.812 0.00,122.499 99.313,221.795 221.812,221.795 z M 393.547,249.103 c 7.368-6.967 7.139-16.959 1.638-24.017 -6.729-7.099 -17.335-7.401 -24.017-1.638 -20.87,18.938 -43.709,36.658 -64.955,56.222 -0.065-0.836 -5.76,3.76 -8.188,3.821 -2.183,0.00 -3.275-2.547 -3.275-7.642 1.072-21.024 -0.49-43.22 1.91-63.591 0.91-7.46 1.365-11.736 1.365-12.827 l 24.563-139.736 c 1.407-12.832 -5.606-22.417 -16.921-24.563 -11.33-3.082 -22.973,6.688 -24.563,16.921 0.00,0.00 -19.816,112.83 -20.196,114.627 -0.38,1.797 -1.049,11.749 -4.913,12.281 -4.964-1.801 -4.388-10.16 -4.913-12.281 -0.524-2.122 -20.196-114.627 -20.196-114.627 -3.32-11.837 -13.525-18.833 -24.563-16.921 -12.613,3.154 -18.778,13.234 -16.921,24.563 l 24.563,140.281 c 3.627,25.928 2.729,49.121 2.729,75.326 0.00,5.096 -1.001,7.735 -3.002,7.915 -2.002,0.182 -4.64-1.183 -7.915-4.094 l -64.955-55.676 c -7.59-5.656 -18.20-4.713 -24.017,1.638 -5.881,8.403 -5.505,17.496 1.638,24.017 l 85.151,75.326 c 4.004,2.547 7.733,4.276 11.19,5.186 3.458,0.91 7.733,1.365 12.827,1.365 l 56.768,0.00 c 5.094,0.00 9.37-0.455 12.827-1.365 3.457-0.91 7.187-2.82 11.19-5.731 27.111-23.781 55.895-49.366 85.151-74.78 z M 293.56,378.314 c 0.00-20.62 -16.716-37.335 -37.335-37.335 -20.62,0.00 -37.335,16.716 -37.335,37.335 0.00,20.62 16.716,37.335 37.335,37.335 20.62,0.00 37.335-16.716 37.335-37.335 z"  />
<glyph unicode="&#xe018;" d="M 511.999,387.415 C 508.575,380.185 502.201,371.052 492.878,360.017 483.555,348.982 472.044,339.278 458.345,330.907 c 0.381-3.044 0.666-5.898 0.856-8.562 C 460.679,281.334 450.856,238.783 437.226,203.335 410.807,137.427 370.326,84.382 312.508,48.365 252.214,13.781 181.995,6.425 117.297,12.69 74.346,17.623 32.013,31.649 -0.001,58.068 58.552,51.069 113.196,70.988 156.396,103.161 108.408,101.946 73.541,136.66 57.079,176.793 c 7.421-1.945 15.184-1.71 22.261-1.142 8.711,0.818 16.98,1.635 25.115,3.425 -30.599,9.872 -57.374,28.021 -71.349,55.367 -8.198,17.327 -11.899,33.827 -11.987,52.513 14.339-7.549 31.585-14.906 47.376-14.27 -23.847,20.201 -42.965,46.02 -46.52,75.63 -2.244,24.689 3.934,47.228 12.843,68.21 35.673-39.204 75.697-71.467 121.864-91.327 31.572-12.929 63.055-19.843 95.608-19.978 -3.757,29.075 -0.836,57.194 12.843,81.052 16.098,25.65 39.586,40.532 65.926,47.946 37.69,9.665 74.452-3.987 97.605-30.252 24.969,2.697 48.888,13.774 67.924,25.115 -8.089-24.495 -23.839-48.85 -46.805-60.504 21.867,4.05 42.732,10.522 62.216,18.836 z"  />
<glyph unicode="&#xe019;" d="M0.00,480.00,M-374.218,542.236,m 886.218-62.236 0.00-512.00 -512.00,0.00 0.00,512.00 z M 298.215,106.824 c -8.70,2.425 -17.279,5.182 -24.085,10.554 -2.706,2.165 -4.059,4.15 -4.059,5.953 0.00,43.659 0.00,87.318 0.00,130.977 l 82.808,0.00 c 0.00,19.123 0.00,38.247 0.00,57.37 l -82.808,0.00 0.00,86.596 -47.628,0.00 c -3.551-44.458 -27.105-86.596 -73.607-86.596 l 0.00-57.37 39.51,0.00 c 0.00-47.267 0.00-94.534 0.00-141.801 0.163-22.30 10.459-41.487 28.414-51.687 16.994-8.797 34.90-11.036 52.77-11.095 17.514,0.085 36.152-0.263 52.77,0.812 14.55,0.522 28.497,3.852 40.863,10.013 l 0.00,61.159 0.00,0.541 0.00-0.541 c -7.216-4.691 -15.154-8.66 -23.814-11.907 -14.526-4.763 -27.493-6.326 -41.133-2.977 z"  />
<glyph unicode="&#xe01a;" d="M 256.00,480.00 C 114.615,480.00 0.00,365.385 0.00,224.00 C 0.00,82.615 114.615-32.00 256.00-32.00 C 397.385-32.00 512.00,82.615 512.00,224.00 C 512.00,365.385 397.385,480.00 256.00,480.00 z M 216.281,384.281 L 295.719,384.281 L 295.719,359.781 L 388.344,359.781 L 388.344,314.687 L 123.656,314.687 L 123.656,359.781 L 216.281,359.781 L 216.281,384.281 z M 137.875,280.375 L 374.125,280.375 L 374.125,63.719 L 137.875,63.719 L 137.875,280.375 z "  />
<glyph unicode="&#xe01b;" d="M-374.218,542.236,m 566.805-62.236 0.00-39.144 -147.963,0.00 0.00-72.024 422.752,0.00 0.00,72.024 -147.963,0.00 0.00,39.144 -126.826,0.00 z m -125.26-165.969 0.00-346.031 377.346,0.00 0.00,346.031 -377.346,0.00 z"  />
<glyph unicode="&#xe01c;" d="M -24.702,55.579,m 506.702,95.439 0.00-183.018 -452.00,0.00 0.00,183.018 L 202.666,224.561 C 160.138,251.865 140.159,299.747 139.789,344.702 140.35,412.296 186.725,479.415 256.00,480.00 328.76,477.614 371.814,409.495 372.21,344.702 370.766,296.095 349.338,249.93 311.017,225.123 z"  />
<glyph unicode="&#xe01d;" d="M0.00,480.00,M 75.051-22.072,m 0.00,171.341 c 0.572,36.242 10.666,68.849 28.824,97.04 18.71,28.022 39.494,55.288 56.847,81.347 27.547,42.481 50.897,86.484 65.174,131.628 4.963,14.161 16.229,22.169 30.105,20.497 15.464,0.949 26.172-7.287 30.105-20.497 15.033-48.882 39.006-91.61 65.494-131.628 18.088-29.491 38.75-52.253 56.526-81.347 19.287-30.65 28.65-63.81 28.824-97.04 C 435.847,99.693 416.342,53.607 384.265,20.843 348.488-13.533 301.421-31.673 256.00-32.00 206.449-30.945 160.489-11.278 127.894,20.843 93.59,56.734 75.378,103.804 75.051,149.269 z M 154.476,109.236 c 1.188-26.099 21.921-45.164 45.157-45.477 26.332,1.165 44.852,22.25 45.157,45.477 0.00,9.181 -2.349,17.187 -7.046,24.02 -5.163,6.719 -10.253,13.673 -14.412,20.337 -6.589,10.76 -13.031,21.459 -16.333,32.827 -0.854,4.27 -3.309,6.085 -7.366,5.444 -3.843,0.854 -6.405-0.961 -7.686-5.444 C 188.494,174.242 182.459,163.507 176.094,153.593 171.617,146.122 166.251,140.308 161.522,133.256 156.611,126.21 154.263,118.203 154.476,109.236 z"  />
<glyph unicode="&#xe01e;" d="M 437.019,405.019 C 390.692,451.346 326.692,480.016 256.00,480.016 114.615,480.016 -0.017,365.385 -0.017,224.00 c 0.00-141.385 114.632-256.017 256.017-256.017 141.385,0.00 256.017,114.632 256.017,256.017 0.00,70.692 -28.671,134.692 -74.997,181.019 z m -51.95-36.836 46.139-46.139 -173.175-173.175 -0.022,0.022 -0.022-0.022 -121.247,121.247 5.06,5.06 35.864,35.864 5.215,5.215 75.13-75.13 127.058,127.058 z"  />
<glyph unicode="&#xe01f;" d="M 256.00,480.00 C 190.484,480.00 124.956,455.018 74.969,405.031 C -25.005,305.057 -25.005,142.943 74.969,42.969 C 174.943-57.005 337.057-57.005 437.031,42.969 C 537.005,142.943 537.005,305.057 437.031,405.031 C 387.044,455.018 321.516,480.00 256.00,480.00 z M 256.00,413.125 C 304.402,413.125 352.819,394.681 389.75,357.75 C 463.612,283.888 463.612,164.112 389.75,90.25 C 315.888,16.388 196.112,16.388 122.25,90.25 C 48.388,164.112 48.388,283.888 122.25,357.75 C 159.181,394.681 207.598,413.125 256.00,413.125 z M 229.813,370.156 L 229.813,250.562 L 163.531,250.562 L 163.531,185.094 L 229.813,185.094 L 295.281,185.094 L 295.281,250.562 L 295.281,370.156 L 229.813,370.156 z "  />
<glyph unicode="&#xe020;" d="M-374.218,542.236,m 374.211-75.142 z m 306.156-25.813 c 18.138,0.195 35.30-18.541 47.188-31.906 27.919-34.306 12.513-72.322 6.375-113.937 l 127.344,0.00 c 17.215-0.128 26.041-13.073 24.843-30.563 l -35.656-220.937 c -8.08-28.253 -39.487-53.124 -72.594-56.657 l -235.562,0.00 c -13.935,0.182 -24.376,10.073 -25.469,25.469 l 0.00,257.219 c 0.181,13.934 10.073,24.376 25.469,25.469 l 58.562,0.00 57.938,129.875 c 3.222,7.009 11.668,15.81 21.562,15.968 z m -213.187-140.75 c 9.801-0.125 17.615-6.901 18.437-17.843 l 0.00-283.969 c -0.142-9.592 -8.091-17.063 -18.437-17.813 l -74.50,0.00 c -9.453,0.129 -17.579,7.293 -18.469,17.813 l 0.00,283.969 c 0.135,9.907 7.67,17.092 18.469,17.843 z"  />
<glyph unicode="&#xe021;" d="M-374.218,542.236,m 861.153-402.363 -127.303,0.00 c 2.578-20.902 6.254-40.977 10.821-60.469 2.481-37.067 -22.341-63.777 -48.375-81.474 -6.79-4.244 -14.003-5.304 -21.642-3.183 -7.217,2.546 -12.521,7.638 -15.913,15.276 l -57.923,129.849 -58.56,0.00 c -15.392,1.093 -25.28,11.53 -25.461,25.461 l 0.00,257.153 c 1.093,15.392 11.53,25.28 25.461,25.461 l 235.511,0.00 c 12.858-0.981 25.547-5.561 35.963-11.457 18.057-10.968 30.772-26.094 36.60-44.556 l 35.645-221.508 c 2.123-16.797 -10.106-30.34 -24.824-30.553 z m -394.004-5.092 -74.472,0.00 c -10.343,0.749 -18.317,8.233 -18.459,17.822 l 0.00,283.886 c 0.822,10.94 8.66,17.697 18.459,17.822 l 74.472,0.00 c 10.795-0.751 18.324-7.917 18.459-17.822 l 0.00-283.886 c -0.889-10.518 -9.009-17.694 -18.459-17.822 z"  />
<glyph unicode="&#xe022;" d="M 0.00,480.00 L 0.00,352.00 L 128.00,352.00 L 128.00,480.00 L 0.00,480.00 z M 200.00,480.00 L 200.00,352.00 L 512.00,352.00 L 512.00,480.00 L 200.00,480.00 z M 0.00,288.00 L 0.00,160.00 L 128.00,160.00 L 128.00,288.00 L 0.00,288.00 z M 200.00,288.00 L 200.00,160.00 L 512.00,160.00 L 512.00,288.00 L 200.00,288.00 z M 0.00,96.00 L 0.00-32.00 L 128.00-32.00 L 128.00,96.00 L 0.00,96.00 z M 200.00,96.00 L 200.00-32.00 L 512.00-32.00 L 512.00,96.00 L 200.00,96.00 z "  />
<glyph unicode="&#xe023;" d="M 0.00,480.00 L 0.00,256.00 L 224.00,256.00 L 224.00,480.00 L 0.00,480.00 z M 288.00,480.00 L 288.00,256.00 L 512.00,256.00 L 512.00,480.00 L 288.00,480.00 z M 0.00,192.00 L 0.00-32.00 L 224.00-32.00 L 224.00,192.00 L 0.00,192.00 z M 288.00,192.00 L 288.00-32.00 L 512.00-32.00 L 512.00,192.00 L 288.00,192.00 z "  />
<glyph unicode="&#xe024;" d="M 0.00,480.00 L 0.00,352.00 L 128.00,352.00 L 128.00,480.00 L 0.00,480.00 z M 192.00,480.00 L 192.00,352.00 L 320.00,352.00 L 320.00,480.00 L 192.00,480.00 z M 384.00,480.00 L 384.00,352.00 L 512.00,352.00 L 512.00,480.00 L 384.00,480.00 z M 0.00,288.00 L 0.00,160.00 L 128.00,160.00 L 128.00,288.00 L 0.00,288.00 z M 192.00,288.00 L 192.00,160.00 L 320.00,160.00 L 320.00,288.00 L 192.00,288.00 z M 384.00,288.00 L 384.00,160.00 L 512.00,160.00 L 512.00,288.00 L 384.00,288.00 z M 0.00,96.00 L 0.00-32.00 L 128.00-32.00 L 128.00,96.00 L 0.00,96.00 z M 192.00,96.00 L 192.00-32.00 L 320.00-32.00 L 320.00,96.00 L 192.00,96.00 z M 384.00,96.00 L 384.00-32.00 L 512.00-32.00 L 512.00,96.00 L 384.00,96.00 z "  />
<glyph unicode="&#xe025;" d="M 110.00,480.00 L 107.50,389.094 L 139.094,389.094 C 139.094,451.445 139.105,451.375 218.781,451.375 L 218.781,200.594 C 218.781,169.335 218.765,169.387 175.031,170.156 L 175.031,145.187 L 336.969,145.187 L 336.969,170.156 C 293.306,170.156 293.219,170.232 293.219,200.594 L 293.219,451.375 C 372.937,451.375 373.125,451.357 373.125,389.094 L 404.50,389.094 L 402.219,480.00 L 110.00,480.00 z M 89.344,145.75 L 0.00,56.875 L 89.344-32.00 L 89.344,27.469 L 422.656,27.469 L 422.656-32.00 L 512.00,56.875 L 422.656,145.75 L 422.656,86.25 L 89.344,86.25 L 89.344,145.75 z "  />
<glyph unicode="&#xe026;" d="M 423.125,480.00 L 334.25,390.656 L 393.75,390.656 L 393.75,57.344 L 334.25,57.344 L 423.125-32.00 L 512.00,57.344 L 452.531,57.344 L 452.531,390.656 L 512.00,390.656 L 423.125,480.00 z M 2.531,391.406 L 0.00,300.50 L 31.594,300.50 C 31.594,362.851 31.637,362.781 111.313,362.781 L 111.313,112.00 C 111.313,80.741 111.297,80.793 67.563,81.562 L 67.563,56.594 L 229.469,56.594 L 229.469,81.562 C 185.806,81.562 185.719,81.639 185.719,112.00 L 185.719,362.781 C 265.437,362.781 265.656,362.764 265.656,300.50 L 297.031,300.50 L 294.75,391.406 L 2.531,391.406 z "  />
<glyph unicode="&#xe027;" d="M 0.00,413.406 L 0.00,313.406 L 512.00,313.406 L 512.00,413.406 L 0.00,413.406 z M 321.219,388.656 L 485.75,388.656 L 485.75,338.156 L 321.219,338.156 L 321.219,388.656 z M 0.00,263.375 L 0.00,163.375 L 512.00,163.375 L 512.00,263.375 L 0.00,263.375 z M 208.094,238.625 L 485.75,238.625 L 485.75,188.125 L 208.094,188.125 L 208.094,238.625 z M 0.00,113.375 L 0.00,13.375 L 512.00,13.375 L 512.00,113.375 L 0.00,113.375 z M 381.844,88.625 L 485.75,88.625 L 485.75,38.125 L 381.844,38.125 L 381.844,88.625 z "  />
<glyph unicode="&#xe028;" d="M 0.00,18.023,m 0.00,262.52 0.00,124.021 c 1.484,19.473 15.387,32.815 33.054,33.054 l 124.021,0.00 c 16.451-0.276 31.777-6.228 45.21-14.342 L 396.648,209.791 c 11.719-15.049 12.32-33.777 0.00-46.439 L 252.958,20.208 C 238.439,7.68 218.091,6.546 206.519,20.208 L 23.493,223.996 C 10.627,239.918 0.191,260.878 0.00,280.543 z m 62.693,49.171 c 13.726-12.655 33.426-11.484 45.21,0.00 12.598,13.61 11.546,33.515 0.00,45.21 -13.628,12.406 -33.474,11.421 -45.21,0.00 -12.458-14.55 -11.99-32.729 0.00-45.21 z m 153.387,107.357 47.532,0.00 c 19.927-1.229 43.508-9.082 56.274-23.493 l 183.026-204.334 c 12.368-14.281 11.865-34.792 0.00-46.986 L 359.769,19.116 c -19.838-11.246 -38.019-10.461 -50.264,3.824 l 140.411,140.411 c 12.643,13.989 11.293,34.166 0.00,46.439 l -163.786,183.26 C 266.743,417.248 225.004,435.978 216.08,437.071 z"  />
<glyph unicode="&#xe029;" d="M 13.099-22.111,m 0.00,314.146 0.00,148.41 c 1.134,22.676 19.405,39.281 39.554,39.554 l 148.41,0.00 c 23.866-1.483 52.363-10.84 67.667-28.113 l 219.673-244.517 c 13.799-17.469 14.189-41.642 0.00-56.226 L 316.457-20.803 C 299.599-36.056 274.444-35.406 260.232-20.803 L 41.212,224.368 C 25.245,243.223 13.319,268.433 13.099,292.035 z m 64.398,85.646 c 0.936-22.063 18.34-37.986 37.92-38.247 22.127,0.988 37.985,18.625 38.247,38.247 -0.975,22.137 -18.701,37.663 -38.247,37.92 -22.073-0.922 -37.664-18.416 -37.92-37.92 z"  />
<glyph unicode="&#xe02a;" d="M 458.812,381.116 C 514.969,305.92 527.353,207.053 492.645,124.566 449.43,28.631 355.771-31.278 256.362-32.00 158.502-30.912 71.637,24.522 28.056,107.536 l 111.677,0.00 c 48.245,0.347 89.60,30.002 90.222,74.712 -0.022,24.48 -9.144,46.96 -28.882,59.056 -17.346,9.89 -35.575,11.847 -53.913,15.107 -11.386,2.384 -28.648,4.684 -28.882,17.579 1.056,20.723 23.019,22.448 37.409,22.524 25.856,0.00 51.713,0.00 77.569,0.00 11.112-0.292 22.083-0.926 31.908-4.944 10.151-4.717 15.306-11.824 15.404-21.974 l 0.00-77.459 c 0.766-25.659 9.109-47.499 27.232-63.451 C 326.209,113.87 347.931,107.664 369.69,107.536 c 23.247,0.633 45.302,7.018 61.89,21.15 19.051,17.774 27.072,40.011 27.232,63.451 z M 256.362,480.00 c 53.087-0.686 103.232-17.576 144.135-44.498 l 0.00-245.562 c -1.367-18.003 -14.40-30.538 -30.808-30.764 -17.978,1.356 -31.124,14.31 -31.358,30.764 l 0.00,73.614 c -0.671,32.588 -9.594,66.818 -41.26,78.833 -8.436,3.113 -17.422,4.67 -26.957,4.67 l -125.981,0.00 c -22.315-0.561 -42.895-6.86 -58.864-20.326 -16.628-15.301 -24.603-34.32 -24.756-54.936 0.247-14.086 3.458-28.114 10.728-39.004 12.063-16.445 29.39-24.164 47.036-27.468 14.11-3.346 28.589-3.366 41.81-7.691 9.623-3.597 12.585-9.188 12.653-18.129 -0.559-10.632 -6.211-15.287 -15.129-17.854 -12.676-2.959 -25.78-2.467 -37.684-2.472 l -111.677,0.00 c -5.255,21.857 -8.201,44.092 -8.252,64.824 2.705,143.091 119.646,255.007 256.363,256.00 z"  />
<glyph unicode="&#xe02b;" d="M 256.00,480.00 C 114.615,480.00 0.00,365.385 0.00,224.00 C 0.00,82.615 114.615-32.00 256.00-32.00 C 397.385-32.00 512.00,82.615 512.00,224.00 C 512.00,365.385 397.385,480.00 256.00,480.00 z M 128.00,352.00 L 384.00,352.00 L 384.00,96.00 L 128.00,96.00 L 128.00,352.00 z "  />
<glyph unicode="&#xe02c;" d="M-374.218,542.236,m 474.249-162.267 311.938,0.00 0.00-311.938 -311.938,0.00 z"  />
<glyph unicode="&#xe02d;" d="M-374.218,542.236,m 702.343-162.267 73.438,0.00 0.00-311.938 -73.438,0.00 z m -218.859,0.00 0.00-311.938 208.306,155.969 -208.306,155.969 z"  />
<glyph unicode="&#xe02e;" d="M-374.218,542.236,m 484.062-162.267 73.437,0.00 0.00-311.938 -73.437,0.00 0.00,311.938 z m 292.312,0.00 0.00-311.938 -208.312,155.969 208.312,155.969 z"  />
<glyph unicode="&#xe02f;" d="M-374.218,542.236,m 632.712-73.709 -15.98-45.661 -48.194-137.744 -145.924,0.633 -48.397,0.228 38.52-29.327 116.091-88.41 -45.712-138.554 -15.144-45.965 39.786,27.554 119.94,83.092 117.686-86.283 39.026-28.617 L 396.264,25.817 354.274,165.587 472.72,250.832 512.00,279.12 463.629,280.184 317.73,283.476 273.259,422.435 258.494,468.527 z m -1.368-102.035 33.252-103.909 3.52-11.016 11.548-0.253 109.076-2.431 -88.537-63.744 -9.396-6.737 3.343-11.067 31.378-104.492 -87.98,64.503 -9.32,6.838 -9.497-6.585 -89.677-62.123 34.189,103.605 3.596,10.966 -9.193,7.015 -86.764,66.073 109.076-0.481 11.548-0.051 3.824,10.915 36.012,102.972 z"  />
<glyph unicode="&#xe030;" d="M 256.00,480.00 C 114.615,480.00 0.00,365.385 0.00,224.00 C 0.00,82.615 114.615-32.00 256.00-32.00 C 397.385-32.00 512.00,82.615 512.00,224.00 C 512.00,365.385 397.385,480.00 256.00,480.00 z M 257.688,390.437 L 298.031,264.469 L 430.25,261.50 L 322.906,184.25 L 360.938,57.562 L 254.281,135.781 L 145.563,60.437 L 187.00,186.062 L 81.75,266.187 L 214.031,265.594 L 257.688,390.437 z "  />
<glyph unicode="&#xe031;" d="M 410.18-20.532 253.476,94.379 93.746-16.287 154.609,168.256 0.00,285.97 194.319,285.114 258.495,468.531 317.728,283.458 512.00,279.102 354.289,165.578 z"  />
<glyph unicode="&#xe032;" d="M0.00,480.00,M0.00,1020.362,m 121.236-943.079 0.00-41.769 201.753,0.00 0.00,41.769 -201.753,0.00 z m 3.415,75.132 -2.89-41.769 201.227-13.66 2.627,41.506 -200.965,13.923 z m -61.997,17.338 0.00-201.753 33.363,0.00 264.275,0.00 21.279,0.00 0.00,201.753 -33.363,0.00 0.00-168.127 -252.191,0.00 0.00,168.127 -33.363,0.00 z m 77.233,71.454 -9.983-40.456 195.711-48.599 9.983,40.718 -195.711,48.337 z M 183.232,342.346 161.954,306.356 335.86,204.166 357.139,240.419 183.232,342.346 z m 106.13,95.885 -34.676-23.38 112.172-167.339 34.676,23.117 -112.172,167.602 z m 135.553,41.769 -41.506-4.991 24.431-200.177 41.506,4.991 -24.431,200.177 z"  />
<glyph unicode="&#xe033;" d="M -27.951,145.713,m 27.951,170.103 104.028,0.00 156.495,127.548 0.00-438.728 -156.495,127.548 -104.028,0.00 z m 319.321,20.806 c 30.756-30.756 46.436-68.146 47.039-112.17 0.00-42.214 -15.68-78.398 -47.039-108.551 L 287.661,148.467 c 21.71,21.71 32.565,47.34 32.565,76.89 0.00,30.153 -10.855,56.386 -32.565,78.70 l 31.661,32.565 z m 54.276,53.371 c 45.23-45.23 67.845-99.807 67.845-163.731 0.00-63.925 -22.615-118.803 -67.845-164.636 l -33.47,33.47 c 36.184,35.581 54.276,79.152 54.276,130.714 0.00,51.562 -18.092,95.435 -54.276,131.618 z"  />
<glyph unicode="&#xe034;" d="M 256.00,480.00 C 114.615,480.00 0.00,365.385 0.00,224.00 C 0.00,82.615 114.615-32.00 256.00-32.00 C 397.385-32.00 512.00,82.615 512.00,224.00 C 512.00,365.385 397.385,480.00 256.00,480.00 z M 122.094,357.906 L 389.906,357.906 L 389.906,90.094 L 122.094,90.094 L 122.094,357.906 z M 209.625,306.969 C 193.658,306.969 180.719,294.03 180.719,278.062 C 180.719,262.095 193.658,249.156 209.625,249.156 C 225.592,249.156 238.563,262.095 238.563,278.062 C 238.563,294.03 225.592,306.969 209.625,306.969 z M 299.75,306.969 C 283.783,306.969 270.844,294.03 270.844,278.062 C 270.844,262.095 283.783,249.156 299.75,249.156 C 315.717,249.156 328.656,262.095 328.656,278.062 C 328.656,294.03 315.717,306.969 299.75,306.969 z M 162.938,215.937 C 162.938,164.54 204.602,122.875 256.00,122.875 C 307.397,122.875 349.063,164.54 349.063,215.937 L 162.938,215.937 z "  />
<glyph unicode="&#xe035;" d="M-374.218,542.236,m 374.218-62.236 0.00-512.00 512.00,0.00 0.00,512.00 z m 167.375-97.375 c 30.524,0.00 55.281-24.726 55.281-55.25 0.00-30.524 -24.757-55.281 -55.281-55.281 -30.524,0.00 -55.281,24.757 -55.281,55.281 0.00,30.524 24.757,55.25 55.281,55.25 z m 172.281,0.00 c 30.524,0.00 55.25-24.726 55.25-55.25 0.00-30.524 -24.726-55.281 -55.25-55.281 -30.524,0.00 -55.281,24.757 -55.281,55.281 0.00,30.524 24.757,55.25 55.281,55.25 z m -261.563-174.031 355.813,0.00 c 0.00-98.256 -79.651-177.938 -177.906-177.938 -98.256,0.00 -177.906,79.682 -177.906,177.938 z"  />
<glyph unicode="&#xe036;" d="M0.00,480.00,M-374.218,542.236,m 400.792-62.236 0.00-247.311 c -5.882,3.919 -16.366,7.198 -21.755,3.258 -5.196-6.008 2.19-14.775 5.447-20.377 32.284-32.494 65.367-53.375 104.349-70.387 -8.819-27.603 -11.412-55.26 -8.689-82.61 5.795-47.804 38.457-94.231 89.678-94.573 24.498,0.559 50.865,18.214 51.096,43.477 l 0.00,107.623 c 6.216-1.777 12.299-4.396 18.48-5.447 l 0.00-100.539 c 0.00-7.247 1.713-13.502 5.155-18.756 10.624-15.353 27.823-24.614 45.925-24.738 53.604,2.14 83.638,46.159 89.694,94.573 2.624,28.619 -1.185,57.598 -8.705,82.626 35.541,17.947 100.306,44.291 111.692,85.593 0.513,5.124 -4.311,7.031 -8.284,7.068 -6.43-0.264 -11.635-2.656 -16.438-6.241 l 0.00,246.76 z m 26.618-27.185 403.842,0.00 0.00-235.882 c -6.733-4.274 -13.25-7.103 -20.101-10.326 l -357.641-3.81 c -9.259,3.532 -17.30,9.26 -26.099,13.05 z M 186.672,327.635 c -33.32,0.00 -60.32-27.016 -60.32-60.336 0.00-33.32 27.00-60.32 60.32-60.32 33.32,0.00 60.336,27.00 60.336,60.32 0.00,33.32 -27.016,60.336 -60.336,60.336 z m 142.995,0.00 c -33.32,0.00 -60.32-27.016 -60.32-60.336 0.00-33.32 27.00-60.32 60.32-60.32 33.32,0.00 60.336,27.00 60.336,60.32 0.00,33.32 -27.016,60.336 -60.336,60.336 z"  />
<glyph unicode="&#xe037;" d="M-374.218,542.236,m 772.861-381.969 c 0.268,39.907 -23.355,66.44 -55.599,81.344 -15.879,6.787 -32.146,12.329 -47.656,16.159 -21.029,5.319 -40.687,8.853 -61.624,14.79 -16.968,4.011 -37.744,17.028 -38.344,32.318 3.857,27.125 36.894,33.264 56.968,33.414 30.015,1.145 48.824-13.911 61.898-36.153 9.575-16.044 17.344-25.581 35.057-25.745 19.28,1.085 34.256,16.322 34.509,33.962 -2.693,39.728 -38.148,62.633 -70.662,73.401 -41.991,10.612 -88.096,10.928 -127.082-3.834 -37.085-13.698 -62.579-44.489 -62.993-81.07 1.861-67.222 69.443-86.548 119.961-97.503 15.386-3.066 30.219-6.272 44.369-10.955 18.925-6.872 34.796-17.248 35.057-37.248 0.00-12.051 -6.025-22.093 -18.076-30.127 -25.784-12.688 -57.622-19.521 -83.261-6.025 -18.303,8.745 -27.181,23.508 -34.509,39.987 -7.663,17.048 -17.099,27.741 -35.057,27.936 -18.827-0.702 -35.338-14.213 -35.605-31.771 2.983-35.127 27.539-64.075 55.325-78.879 52.62-21.609 110.679-25.797 161.592-4.93 39.571,16.984 65.32,51.509 65.732,90.93 z m 95.312,9.86 c 9.494-19.72 14.242-40.535 14.242-62.446 -0.836-38.238 -15.994-73.69 -40.809-98.872 -28.536-26.708 -62.86-40.549 -98.872-40.809 -23.779,0.401 -46.137,6.001 -65.732,16.433 -45.767-7.95 -99.05-1.386 -138.038,15.064 -59.157,26.717 -104.515,73.979 -128.452,128.452 -18.381,49.07 -23.444,95.171 -13.968,142.42 -31.392,56.712 -22.035,125.217 21.637,169.535 48.385,46.269 118.30,52.142 173.369,19.446 78.258,12.637 158.50-15.198 211.439-67.376 45.629-47.60 70.224-109.98 70.662-170.356 -0.075-17.825 -1.995-35.306 -5.478-51.49 z"  />
<glyph unicode="&#xe038;" d="M-374.218,542.236,m 783.818-574.236 0.00,512.00 102.40,0.00 0.00-512.00 -102.40,0.00 z m -136.533,384.00 102.40,0.00 0.00-384.00 -102.40,0.00 0.00,384.00 z m -136.533-128.00 102.40,0.00 0.00-256.00 -102.40,0.00 0.00,256.00 z m -136.533-128.00 102.40,0.00 0.00-128.00 -102.40,0.00 0.00,128.00 z"  />
<glyph unicode="&#xe039;" d="M 256.00,480.00 C 114.615,480.00 0.00,365.385 0.00,224.00 0.00,82.615 114.615-32.00 256.00-32.00 397.385-32.00 512.00,82.615 512.00,224.00 512.00,365.385 397.385,480.00 256.00,480.00 z m -129.031-108.156 45.563-14.313 c 6.032-1.981 10.049-7.582 10.75-13.313 l 2.563-25.094 206.313-23.031 c 8.859-1.717 15.083-9.715 13.844-17.938 l -12.813-72.188 c -1.631-7.551 -7.885-12.727 -14.844-12.813 l -183.281,0.00 -3.594-20.469 174.063,0.00 c 9.102-0.321 15.768-7.251 15.875-15.344 -0.377-9.232 -7.819-15.274 -15.875-15.375 l -192.50,0.00 c -9.709,0.803 -16.837,8.497 -15.344,17.906 l 8.188,45.063 -12.813,125.969 -35.313,11.25 c -4.096,1.365 -7.171,3.933 -9.219,7.688 -3.875,8.12 -0.255,17.111 6.656,21.00 3.945,2.051 7.798,2.307 11.781,1.00 z m 69.375-238.719 c 13.255,0.00 24.00-10.745 24.00-24.00 0.00-13.255 -10.745-24.00 -24.00-24.00 -13.255,0.00 -24.00,10.745 -24.00,24.00 0.00,13.255 10.745,24.00 24.00,24.00 z m 140.875,0.00 c 13.255,0.00 24.00-10.745 24.00-24.00 0.00-13.255 -10.745-24.00 -24.00-24.00 -13.255,0.00 -24.00,10.745 -24.00,24.00 0.00,13.255 10.745,24.00 24.00,24.00 z"  />
<glyph unicode="&#xe03a;" d="M-374.218,542.236,m 885.961-234.412 -21.471-123.177 c -2.648-13.607 -13.489-21.881 -25.991-22.036 l -313.027,0.00 -6.215-35.032 298.336,0.00 c 15.709-1.194 26.365-12.322 26.556-26.556 -1.142-15.677 -12.269-26.362 -26.556-26.556 l -329.978,0.00 c -17.846,1.605 -28.488,15.83 -26.556,31.642 L 100.966,182.952 79.494,398.794 18.471,418.005 c -14.912,5.921 -20.999,19.411 -17.516,33.337 5.791,14.513 19.668,21.144 33.337,17.516 l 77.974-24.861 c 10.504-3.938 16.547-12.536 18.081-22.601 l 4.52-42.942 353.709-39.552 c 16.252-3.52 25.074-16.393 23.166-31.077 z m -317.494-289.117 c 0.00-22.39 -18.151-40.541 -40.541-40.541 -22.39,0.00 -40.541,18.151 -40.541,40.541 0.00,22.39 18.151,40.541 40.541,40.541 22.39,0.00 40.541-18.151 40.541-40.541 z m 242.027,0.00 c 0.00-22.39 -18.151-40.541 -40.541-40.541 -22.39,0.00 -40.541,18.151 -40.541,40.541 0.00,22.39 18.151,40.541 40.541,40.541 22.39,0.00 40.541-18.151 40.541-40.541 z"  />
<glyph unicode="&#xe03b;" d="M0.00,1020.362,m 321.942-555.308 0.00-125.529 C 207.922,339.521 0.00,338.271 0.00-17.054 23.573,220.557 131.866,222.051 321.942,222.054 l 0.00-137.085 L 512.00,275.026 321.942,465.054 z"  />
<glyph unicode="&#xe03c;" d="M0.00,480.00,M 0.00,480.00,m 0.00,0.00 0.00-512.00 512.00,0.00 0.00,267.313 -84.00-89.063 0.00-94.25 -344.00,0.00 0.00,344.00 169.25,0.00 0.00,84.00 zM-374.218,542.236,m 740.241-62.236 0.00-96.415 c -87.575-0.002 -247.273-0.963 -247.273-273.876 18.106,182.501 101.282,183.648 247.273,183.651 l 0.00-105.29 L 512.00,334.046 366.023,480.00 z"  />
<glyph unicode="&#xe03d;" d="M 256.00,480.00 C 114.615,480.00 0.00,365.385 0.00,224.00 C 0.00,82.615 114.615-32.00 256.00-32.00 C 397.385-32.00 512.00,82.615 512.00,224.00 C 512.00,365.385 397.385,480.00 256.00,480.00 z M 273.563,369.062 C 342.057,369.062 397.563,313.525 397.563,245.031 C 397.563,176.537 342.057,121.031 273.563,121.031 C 252.835,121.031 233.299,126.102 216.125,135.094 C 216.143,135.014 216.171,134.923 216.188,134.844 L 160.25,78.937 L 114.438,124.781 L 168.375,178.75 C 168.464,178.79 168.567,178.805 168.656,178.844 C 156.544,197.998 149.531,220.695 149.531,245.031 C 149.531,313.525 205.069,369.062 273.563,369.062 z M 273.563,313.969 C 235.498,313.969 204.625,283.096 204.625,245.031 C 204.625,206.967 235.498,176.125 273.563,176.125 C 311.627,176.125 342.469,206.967 342.469,245.031 C 342.469,283.096 311.627,313.969 273.563,313.969 z "  />
<glyph unicode="&#xe03e;" d="M-374.218,542.236,m 661.208-62.236 c -120.877,0.00 -218.879-97.985 -218.879-218.862 0.00-42.949 12.367-83.014 33.742-116.817 -0.157-0.068 -0.311-0.13 -0.468-0.201 l -95.237-95.22 80.90-80.90 98.666,98.683 c -0.03,0.139 -0.069,0.278 -0.10,0.418 30.308-15.868 64.796-24.842 101.376-24.842 120.877,0.00 218.862,98.002 218.862,218.879 0.00,120.877 -97.985,218.862 -218.862,218.862 z m 0.00-97.227 c 67.175,0.00 121.618-54.459 121.618-121.635 0.00-67.175 -54.443-121.635 -121.618-121.635 -67.175,0.00 -121.635,54.459 -121.635,121.635 0.00,67.175 54.459,121.635 121.635,121.635 z"  />
<glyph unicode="&#xe03f;" d="M 217.438,480.00 L 217.438,413.344 C 141.67,397.994 82.006,338.33 66.656,262.562 L 0.00,262.562 L 0.00,185.437 L 66.656,185.437 C 82.006,109.67 141.67,50.006 217.438,34.656 L 217.438-32.00 L 294.563-32.00 L 294.563,34.656 C 370.33,50.006 429.994,109.67 445.344,185.437 L 512.00,185.437 L 512.00,262.562 L 445.344,262.562 C 429.994,338.33 370.33,397.994 294.563,413.344 L 294.563,480.00 L 217.438,480.00 z M 217.438,361.969 L 217.438,287.156 L 294.563,287.156 L 294.563,361.969 C 342.665,348.554 380.554,310.665 393.969,262.562 L 319.156,262.562 L 319.156,185.437 L 393.969,185.437 C 380.554,137.335 342.665,99.446 294.563,86.031 L 294.563,160.844 L 217.438,160.844 L 217.438,86.031 C 169.335,99.446 131.446,137.335 118.031,185.437 L 192.844,185.437 L 192.844,262.562 L 118.031,262.562 C 131.446,310.665 169.335,348.554 217.438,361.969 z "  />
<glyph unicode="&#xe040;" d="M 256.00,480.00 C 114.615,480.00 0.00,365.385 0.00,224.00 C 0.00,82.615 114.615-32.00 256.00-32.00 C 397.385-32.00 512.00,82.615 512.00,224.00 C 512.00,365.385 397.385,480.00 256.00,480.00 z M 106.688,347.531 L 405.313,347.531 L 405.313,150.406 L 296.875,150.406 L 296.875,122.00 L 323.313,122.00 L 323.313,100.469 L 188.688,100.469 L 188.688,122.00 L 215.125,122.00 L 215.125,150.406 L 106.688,150.406 L 106.688,347.531 z M 143.438,310.312 L 143.438,187.594 L 368.563,187.594 L 368.563,310.312 L 143.438,310.312 z "  />
<glyph unicode="&#xe041;" d="M-374.218,542.236,m 374.218-106.424 0.00-338.00 185.906,0.00 0.00-48.719 -45.313,0.00 0.00-36.906 230.813,0.00 0.00,36.906 -45.313,0.00 0.00,48.719 185.906,0.00 0.00,338.00 -512.00,0.00 z m 62.969-63.813 386.063,0.00 0.00-210.406 -386.063,0.00 0.00,210.406 z"  />
<glyph unicode="&#xe042;" d="M-374.218,542.236,m 886.218-574.236 c 0.00,282.77 -229.23,512.00 -512.00,512.00 l 0.00-102.406 c 226.216,0.00 409.594-183.378 409.594-409.594 l 102.406,0.00 z m -204.813,0.00 c 0.00,169.662 -137.526,307.188 -307.188,307.188 l 0.00-102.375 c 113.108,0.00 204.813-91.705 204.813-204.813 l 102.375,0.00 z m -204.781,0.00 c 0.00,56.554 -45.852,102.406 -102.406,102.406 l 0.00-102.406 102.406,0.00 z"  />
<glyph unicode="&#xe043;" d="M0.00,480.00,M-374.218,542.236,m 886.218-574.236 c 0.00,0.00 -103.363,512.00 -103.363,512.00 0.00,0.00 -127.595,0.00 -127.595,0.00 0.00,0.00 3.91-118.048 3.91-118.048 0.00,0.00 -57.904,0.00 -57.904,0.00 0.00,0.00 3.91,118.048 3.91,118.048 0.00,0.00 -127.595,0.00 -127.595,0.00 0.00,0.00 -103.363-512.00 -103.363-512.00 0.00,0.00 214.00,0.00 214.00,0.00 0.00,0.00 4.882,147.39 4.882,147.39 0.00,0.00 74.237,0.00 74.237,0.00 0.00,0.00 4.882-147.39 4.882-147.39 0.00,0.00 214.00,0.00 214.00,0.00 0.00,0.00 0.00,0.00 0.00,0.00 M 291.658,159.474 c 0.00,0.00 -71.316,0.00 -71.316,0.00 0.00,0.00 5.751,173.638 5.751,173.638 0.00,0.00 59.814,0.00 59.814,0.00 0.00,0.00 5.751-173.638 5.751-173.638 0.00,0.00 0.00,0.00 0.00,0.00"  />
<glyph unicode="&#xe044;" d="M-374.218,542.236,m 630.218-574.236 c -141.376,0.00 -256.00,114.624 -256.00,256.00 0.00,141.376 114.624,256.00 256.00,256.00 141.376,0.00 256.00-114.624 256.00-256.00 0.00-141.376 -114.624-256.00 -256.00-256.00 z m -32.00,351.84 -128.00-95.84 128.00-95.84 0.00,191.68 z m 160.00,0.00 -128.00-95.84 128.00-95.84 0.00,191.68 z"  />
<glyph unicode="&#xe045;" d="M 128.00,384.00 L 0.00,256.00 L 96.00,256.00 L 96.00,96.00 L 288.00,96.00 L 224.00,160.00 L 160.00,160.00 L 160.00,256.00 L 256.00,256.00 L 128.00,384.00 z M 224.00,352.00 L 288.00,288.00 L 352.00,288.00 L 352.00,192.00 L 256.00,192.00 L 384.00,64.00 L 512.00,192.00 L 416.00,192.00 L 416.00,352.00 L 224.00,352.00 z "  />
<glyph unicode="&#xe046;" d="M-374.218,542.236,m 759.968-191.986 -129.75,129.75 -129.75-129.75 86.844,0.00 0.00-134.313 0.00-15.875 0.00-102.313 -86.844,0.00 129.75-129.75 129.75,129.75 -86.844,0.00 0.00,102.313 0.00,15.875 0.00,134.313 86.844,0.00 z"  />
<glyph unicode="&#xe047;" d="M0.00,480.00,M0.00,1020.362,m 74.732-1052.362 102.928,102.928 75.638-75.638 0.00,226.009 -226.009,0.00 75.638-75.638 L 0.00,42.732 74.732-32.00 zM0.00,1020.362,m 437.268-540.362 -102.928-102.928 -75.638,75.638 0.00-226.009 226.009,0.00 L 409.072,302.339 512.00,405.267 437.268,480.00 z"  />
<glyph unicode="&#xe048;" d="M 129.75,353.75 0.00,224.00 l 129.75-129.75 0.00,86.844 252.50,0.00 0.00-86.844 L 512.00,224.00 382.25,353.75 l 0.00-86.844 -252.50,0.00 z"  />
<glyph unicode="&#xe049;" d="M 178.567,221.299 75.638,118.371 0.00,194.009 l 0.00-226.009 226.009,0.00 -75.638,75.638 102.928,102.928 -74.732,74.732 zM 333.433,226.701 436.362,329.629 512.00,253.991 l 0.00,226.009 -226.009,0.00 75.638-75.638 -102.928-102.928 74.732-74.732 z"  />
<glyph unicode="&#xe04a;" d="M 256.00,480.00 C 114.615,480.00 0.00,365.385 0.00,224.00 C 0.00,82.615 114.615-32.00 256.00-32.00 C 397.385-32.00 512.00,82.615 512.00,224.00 C 512.00,365.385 397.385,480.00 256.00,480.00 z M 256.00,372.281 C 297.16,372.281 334.386,355.488 361.25,328.406 L 404.281,359.031 L 404.281,220.906 L 272.094,264.969 L 311.031,292.687 C 295.957,304.813 276.854,312.094 256.00,312.094 C 207.347,312.094 167.906,272.653 167.906,224.00 C 167.906,175.347 207.347,135.906 256.00,135.906 C 288.652,135.906 317.096,153.702 332.313,180.094 L 384.50,150.094 C 358.89,105.666 310.964,75.719 256.00,75.719 C 174.109,75.719 107.719,142.109 107.719,224.00 C 107.719,305.891 174.109,372.281 256.00,372.281 z "  />
<glyph unicode="&#xe04b;" d="M 256.00,480.00 C 114.615,480.00 0.00,365.385 0.00,224.00 C 0.00,82.615 114.615-32.00 256.00-32.00 C 350.895-32.00 433.66,19.67 477.875,96.375 L 387.75,148.219 C 361.479,102.654 312.374,71.906 256.00,71.906 C 172.001,71.906 103.906,140.001 103.906,224.00 C 103.906,307.999 172.001,376.094 256.00,376.094 C 292.005,376.094 325.006,363.498 351.031,342.562 L 283.813,294.75 L 512.00,218.656 L 512.00,457.125 L 437.688,404.25 C 391.306,451.007 327.063,480.00 256.00,480.00 z "  />
<glyph unicode="&#xe04c;" d="M 256.00,480.00 C 114.615,480.00 0.00,365.385 0.00,224.00 C 0.00,82.615 114.615-32.00 256.00-32.00 C 397.385-32.00 512.00,82.615 512.00,224.00 C 512.00,365.385 397.385,480.00 256.00,480.00 z M 175.563,368.00 L 256.00,287.562 L 336.438,368.00 L 400.00,304.437 L 319.563,224.00 L 400.00,143.562 L 336.438,80.00 L 256.00,160.437 L 175.563,80.00 L 112.00,143.562 L 192.438,224.00 L 112.00,304.437 L 175.563,368.00 z "  />
<glyph unicode="&#xe04d;" d="M 256.00,480.00 C 114.616,480.00 0.00,365.384 0.00,224.00 C 0.00,82.616 114.616-32.00 256.00-32.00 C 397.384-32.00 512.00,82.616 512.00,224.00 C 512.00,365.384 397.384,480.00 256.00,480.00 z M 256.00,424.375 C 366.664,424.375 456.344,334.637 456.344,224.00 C 456.344,113.363 366.664,23.656 256.00,23.656 C 145.336,23.656 55.656,113.363 55.656,224.00 C 55.656,334.637 145.336,424.375 256.00,424.375 z M 185.781,349.719 L 130.281,294.219 L 200.50,224.00 L 130.281,153.781 L 185.781,98.281 L 256.00,168.50 L 326.219,98.281 L 381.719,153.781 L 311.50,224.00 L 381.719,294.219 L 326.219,349.719 L 256.00,279.50 L 185.781,349.719 z "  />
<glyph unicode="&#xe04e;" d="M 0.00,367.001 143.001,224.00 0.00,80.998 112.998-32.00 256.00,111.001 399.001-32.00 512.00,80.998 368.998,224.00 512.00,367.001 399.001,480.00 256.00,336.998 112.998,480.00 0.00,367.001 z"  />
<glyph unicode="&#xe04f;" d="M 256.00,480.00 C 131.729,480.00 28.164,391.443 4.906,274.00 l 71.063,0.00 C 97.864,352.957 170.071,411.00 256.00,411.00 c 51.656,0.00 98.336-20.99 132.125-54.875 L 306.00,274.00 436.031,274.00 512.00,274.00 512.00,480.00 437.00,405.00 C 390.679,451.336 326.698,480.00 256.00,480.00 z M 0.00,174.00 0.00-32.00 75.00,43.00 c 46.321-46.336 110.302-75.00 181.00-75.00 124.271,0.00 227.836,88.557 251.094,206.00 l -71.063,0.00 C 414.136,95.043 341.929,37.00 256.00,37.00 204.344,37.00 157.664,57.99 123.875,91.875 L 206.00,174.00 z"  />
<glyph unicode="&#xe050;" d="M0.00,480.00,M-374.218,542.236,m 715.187-437.507 c 5.801-9.393 -0.381-13.312 -5.647-17.748 -22.655-16.864 -54.36-23.029 -80.403-23.126 -24.363,0.478 -59.937,6.221 -78.252,23.126 -6.255,4.94 -9.99,12.889 -4.034,18.286 6.308,5.291 12.025-0.311 16.941-4.571 21.201-14.773 40.337-15.474 65.345-18.017 27.058,1.317 45.183,5.344 68.303,18.555 5.492,4.774 11.753,9.321 17.748,3.496 z m 93.479,335.343 c -20.366,0.00 -37.776-12.655 -44.806-30.525 L 290.415,433.88 248.997,316.628 c -29.401-0.717 -57.006-4.839 -82.821-12.369 -25.815-7.529 -48.753-17.571 -68.831-30.12 -10.756,9.681 -23.669,14.525 -38.727,14.525 -8.246,0.00 -15.866-1.524 -22.857-4.571 -6.992-3.048 -13.183-7.266 -18.561-12.644 -5.378-5.378 -9.581-11.65 -12.628-18.821 -3.048-7.171 -4.571-14.693 -4.571-22.582 0.00-10.398 2.422-19.91 7.262-28.515 4.84-8.605 11.369-15.599 19.615-20.977 -0.359-2.868 -0.711-5.819 -1.07-8.867 -0.359-3.048 -0.535-6.192 -0.535-9.418 0.00-21.154 5.999-41.14 18.01-59.964 12.011-18.824 28.517-35.216 49.491-49.20 20.975-13.983 45.356-25.019 73.143-33.086 27.787-8.067 57.622-12.093 89.532-12.093 31.552,0.00 61.322,4.026 89.289,12.093 27.966,8.067 52.427,19.103 73.402,33.086 20.975,13.983 37.48,30.376 49.491,49.20 12.011,18.824 18.01,38.81 18.01,59.964 0.00,5.737 -0.545,11.656 -1.621,17.751 8.605,5.378 15.422,12.468 20.442,21.252 5.019,8.784 7.538,18.376 7.538,28.774 0.00,7.888 -1.524,15.411 -4.571,22.582 -3.048,7.171 -7.266,13.443 -12.644,18.821 -5.378,5.378 -11.65,9.597 -18.821,12.644 -7.171,3.048 -14.886,4.571 -23.133,4.571 -14.342,0.00 -27.238-4.844 -38.711-14.525 -19.361,12.191 -41.417,22.055 -66.156,29.585 -24.739,7.529 -51.27,11.828 -79.595,12.904 l 33.88,95.189 84.069-19.712 c 0.00-0.059 0.00-0.119 0.00-0.178 0.00-26.584 21.546-48.13 48.13-48.13 26.584,0.00 48.146,21.546 48.146,48.13 0.00,26.584 -21.562,48.146 -48.146,48.146 z M 255.449,298.342 c 29.042,0.00 56.471-3.577 82.286-10.748 25.815-7.171 48.319-16.859 67.502-29.05 19.182-12.191 34.34-26.627 45.455-43.299 11.115-16.672 16.665-34.332 16.665-52.977 0.00-18.644 -5.55-36.208 -16.665-52.701 -11.114-16.493 -26.272-30.833 -45.455-43.023 -19.182-12.19 -41.686-21.879 -67.502-29.05 -25.815-7.171 -53.244-10.748 -82.286-10.748 -29.042,0.00 -56.471,3.577 -82.286,10.748 -25.815,7.171 -48.223,16.859 -67.226,29.05 -19.003,12.191 -34.048,26.53 -45.163,43.023 -11.115,16.493 -16.681,34.057 -16.681,52.701 0.00,18.644 5.566,36.304 16.681,52.977 11.115,16.672 26.16,31.108 45.163,43.299 19.003,12.191 41.411,21.879 67.226,29.05 25.815,7.171 53.244,10.748 82.286,10.748 z m 78.055-72.186 c -20.049,0.00 -36.312-16.136 -36.312-36.036 0.00-19.901 16.263-36.036 36.312-36.036 20.049,0.00 36.296,16.136 36.296,36.036 0.00,19.901 -16.247,36.036 -36.296,36.036 z m -150.744-0.567 c -20.049,0.00 -36.296-16.136 -36.296-36.036 0.00-19.901 16.247-36.036 36.296-36.036 20.049,0.00 36.312,16.136 36.312,36.036 0.00,19.901 -16.263,36.036 -36.312,36.036 z m 300.19-46.379 c -0.172-0.089 -0.341-0.193 -0.519-0.324 0.175,0.131 0.343,0.237 0.519,0.324 z"  />
<glyph unicode="&#xe051;" d="M-374.218,542.236,m 630.218-574.236 c -141.376,0.00 -256.00,114.624 -256.00,256.00 0.00,141.376 114.624,256.00 256.00,256.00 141.376,0.00 256.00-114.624 256.00-256.00 0.00-141.376 -114.624-256.00 -256.00-256.00 z m 0.00,384.00 c -70.688,0.00 -128.00-57.312 -128.00-128.00 0.00-70.688 57.312-128.00 128.00-128.00 70.688,0.00 128.00,57.312 128.00,128.00 0.00,70.688 -57.312,128.00 -128.00,128.00 z"  />
<glyph unicode="&#xe052;" d="M0.00,480.00,M0.00,1020.362,m 399.328-558.369 0.00-79.386 -73.373,0.00 c -23.214,0.00 -48.847-11.332 -70.284-32.99 -21.437-21.658 -44.732-53.788 -81.719-106.626 -37.152-53.075 -57.842-85.148 -70.744-99.561 -12.902-14.413 -10.827-13.176 -29.605-13.176 l -72.716,0.00 -0.887,0.00 0.00-63.088 0.887,0.00 72.716,0.00 c 28.193,0.00 56.551,11.784 76.593,34.173 20.042,22.389 38.96,53.403 75.41,105.476 36.616,52.309 59.896,83.268 74.884,98.411 14.989,15.143 15.633,14.293 25.465,14.293 l 73.373,0.00 0.00-82.836 L 512.00,349.322 399.328,461.993 z M 0.00,382.607 l 0.00-63.088 0.887,0.00 72.716,0.00 c 18.778,0.00 16.703,1.269 29.605-13.143 8.301-9.273 21.977-28.939 39.036-53.724 2.312,3.317 3.402,4.916 5.849,8.412 9.293,13.276 17.734,25.253 25.531,36.177 2.714,3.802 4.986,6.801 7.557,10.35 -11.528,16.657 -21.131,29.868 -30.985,40.876 C 130.153,370.856 101.796,382.607 73.603,382.607 l -72.716,0.00 -0.887,0.00 z m 399.328-171.291 0.00-81.062 -73.373,0.00 c -9.832,0.00 -10.477-0.817 -25.465,14.326 -9.914,10.017 -23.955,27.773 -42.585,53.231 -2.253-3.196 -4.076-5.725 -6.44-9.102 -13.044-18.634 -22.037-32.078 -31.478-46.002 13.395-17.74 24.798-31.52 35.684-42.519 21.437-21.658 47.07-33.023 70.284-33.023 l 73.373,0.00 0.00-81.16 L 512.00,98.645 399.328,211.316 z"  />
<glyph unicode="&#xe053;" d="M 256.00,480.00 C 114.615,480.00 0.00,365.385 0.00,224.00 C 0.00,82.615 114.615-32.00 256.00-32.00 C 397.385-32.00 512.00,82.615 512.00,224.00 C 512.00,365.385 397.385,480.00 256.00,480.00 z M 236.406,359.50 L 247.406,308.844 C 215.176,301.71 185.537,292.431 187.938,256.437 L 225.813,256.437 L 225.813,121.625 L 111.719,121.625 L 111.719,247.625 C 111.759,347.76 185.277,355.907 236.406,359.50 z M 389.25,359.50 L 400.281,308.844 C 368.051,301.71 338.412,292.431 340.813,256.437 L 378.688,256.437 L 378.688,121.625 L 264.594,121.625 L 264.594,247.625 C 264.634,347.76 338.12,355.907 389.25,359.50 z "  />
<glyph unicode="&#xe054;" d="M 222.656,435.187 C 131.979,428.815 1.634,414.338 1.563,236.75 L 1.563,13.312 L 203.906,13.312 L 203.906,252.375 L 136.719,252.375 C 132.462,316.209 185.027,332.691 242.188,345.344 L 222.656,435.187 z M 493.75,435.187 C 403.072,428.815 272.728,414.338 272.656,236.75 L 272.656,13.312 L 475.00,13.312 L 475.00,252.375 L 407.813,252.375 C 403.556,316.209 456.12,332.691 513.281,345.344 L 493.75,435.187 z "  />
<glyph unicode="&#xe055;" d="M 256.00,480.00 C 114.615,480.00 0.00,365.385 0.00,224.00 C 0.00,82.615 114.615-32.00 256.00-32.00 C 397.385-32.00 512.00,82.615 512.00,224.00 C 512.00,365.385 397.385,480.00 256.00,480.00 z M 251.375,415.844 C 282.44,415.769 307.40,405.945 324.813,387.969 C 342.225,369.992 350.21,347.912 350.375,325.812 C 350.159,302.524 348.381,291.801 329.656,263.656 C 310.932,235.511 263.854,194.784 272.75,149.062 L 236.813,149.687 C 220.895,181.717 224.939,220.247 237.063,245.75 C 249.186,271.253 258.272,279.448 268.125,303.031 C 277.978,326.615 254.633,353.258 233.344,353.437 C 212.054,353.617 203.945,344.827 197.281,329.781 L 168.125,329.781 C 165.607,331.235 160.176,332.856 161.969,359.437 C 163.761,386.019 220.31,415.919 251.375,415.844 z M 253.188,119.25 C 277.225,119.25 296.656,99.788 296.656,75.75 C 296.656,51.712 277.225,32.156 253.188,32.156 C 229.15,32.156 209.688,51.712 209.688,75.75 C 209.688,99.788 229.15,119.25 253.188,119.25 z "  />
<glyph unicode="&#xe056;" d="M-374.218,542.236,m 624.056-62.237 c -41.452,0.10 -116.904-39.795 -119.296-75.264 -2.392-35.469 4.832-37.655 8.192-39.595 l 38.912,0.00 c 8.891,20.076 19.72,31.813 48.128,31.573 28.407-0.239 59.568-35.774 46.421-67.243 -13.147-31.468 -25.295-42.429 -41.472-76.459 -16.177-34.03 -21.58-85.432 -0.341-128.171 l 47.957-0.853 c -11.87,61.008 50.962,115.362 75.947,152.917 24.985,37.555 27.36,51.869 27.648,82.944 -0.22,29.489 -10.899,58.957 -34.133,82.944 -23.235,23.987 -56.511,37.105 -97.963,37.205 z m 2.389-395.776 c -32.074,0.00 -58.027-25.952 -58.027-58.027 0.00-32.074 25.952-58.197 58.027-58.197 32.074,0.00 58.027,26.123 58.027,58.197 0.00,32.074 -25.952,58.027 -58.027,58.027 z"  />
<glyph unicode="&#xe057;" d="M 0.00-32.00 L 0.00,200.666  L 232.667,200.666  L 232.667-32.00  L 0.00-32.00  z m 0.00,279.333 L 0.00,480.00  L 232.667,480.00  L 232.667,247.333  L 0.00,247.333  z m 46.333-233.00 l 140.00,0.00  l 0.00,140.00  l -140.00,0.00  l 0.00-140.00  z m 0.00,279.333 l 140.00,0.00  l 0.00,140.00  l -140.00,0.00  l 0.00-140.00  z m 46.667-232.667 l 0.00,47.00  l 47.00,0.00  l 0.00-47.00  l -47.00,0.00  z m 0.00,279.00 l 0.00,46.333  l 47.00,0.00  l 0.00-46.333  l -47.00,0.00  z m 186.333-372.00 L 279.333,200.666  l 139.00,0.00  l 0.00-46.333  l 47.333,0.00  l 0.00,46.333  l 46.333,0.00  L 512.00,61.00  L 372.00,61.00  l 0.00,46.333  l -46.333,0.00  l 0.00-139.333  l -46.333,0.00  z m 0.00,279.333 L 279.333,480.00  L 512.00,480.00  L 512.00,247.333  L 279.333,247.333  z m 46.333,46.333 l 140.00,0.00  l 0.00,140.00  l -140.00,0.00  l 0.00-140.00  z m 46.333-325.667 l 0.00,46.333  l 46.333,0.00  l 0.00-46.333  l -46.333,0.00  z m 0.00,372.00 l 0.00,46.333  l 46.333,0.00  l 0.00-46.333  l -46.333,0.00  z m 93.667-372.00 l 0.00,46.333  l 46.333,0.00  l 0.00-46.333  l -46.333,0.00  z"  />
<glyph unicode="&#xe058;" d="M 156.781,444.562 L 156.781,367.25 L 136.563,367.25 L 17.156,316.437 L 494.844,316.437 L 375.438,367.25 L 355.219,367.25 L 355.219,444.562 L 156.781,444.562 z M 0.00,286.75 L 0.00,131.281 L 79.25,131.281 L 51.406-4.656 L 460.594-4.656 L 432.75,131.281 L 512.00,131.281 L 512.00,286.75 L 0.00,286.75 z M 124.344,228.156 L 387.625,228.156 L 427.625,32.844 L 84.344,32.844 L 124.344,228.156 z "  />
<glyph unicode="&#xe059;" d="M 256.00,480.00 C 114.615,480.00 0.00,365.385 0.00,224.00 C 0.00,82.615 114.615-32.00 256.00-32.00 C 397.385-32.00 512.00,82.615 512.00,224.00 C 512.00,365.385 397.385,480.00 256.00,480.00 z M 215.125,368.281 L 296.875,368.281 L 296.875,264.875 L 400.281,264.875 L 400.281,183.125 L 296.875,183.125 L 296.875,79.719 L 215.125,79.719 L 215.125,183.125 L 111.719,183.125 L 111.719,264.875 L 215.125,264.875 L 215.125,368.281 z "  />
<glyph unicode="&#xe05a;" d="M 183.50,480.00 L 183.50,296.50 L 0.00,296.50 L 0.00,151.50 L 183.50,151.50 L 183.50-32.00 L 328.50-32.00 L 328.50,151.50 L 512.00,151.50 L 512.00,296.50 L 328.50,296.50 L 328.50,480.00 L 183.50,480.00 z "  />
<glyph unicode="&#xe05b;" d="M 256.00,480.00 C 114.624,480.00 0.00,365.376 0.00,224.00 C 0.00,82.624 114.624-32.00 256.00-32.00 C 397.376-32.00 512.00,82.624 512.00,224.00 C 512.00,365.376 397.376,480.00 256.00,480.00 z M 256.00,420.625 C 364.586,420.625 452.625,332.586 452.625,224.00 C 452.625,115.414 364.586,27.375 256.00,27.375 C 147.414,27.375 59.375,115.414 59.375,224.00 C 59.375,332.586 147.414,420.625 256.00,420.625 z M 192.00,351.812 L 192.00,96.187 L 384.00,224.00 L 192.00,351.812 z "  />
<glyph unicode="&#xe05c;" d="M-374.218,542.236,m 630.218-574.236 c -141.376,0.00 -256.00,114.624 -256.00,256.00 0.00,141.376 114.624,256.00 256.00,256.00 141.376,0.00 256.00-114.624 256.00-256.00 0.00-141.376 -114.624-256.00 -256.00-256.00 z m -64.00,383.808 0.00-255.616 192.00,127.808 -192.00,127.808 z"  />
<glyph unicode="&#xe05d;" d="M-374.218,542.236,m 526.065-162.267 0.00-311.938 208.306,155.969 z"  />
<glyph unicode="&#xe05e;" d="M0.00,1020.362,m 136.96-1037.002 51.20,0.00 114.893,204.826 132.147,0.00 c 0.00,0.00 76.80,0.00 76.80,35.814 0.00,35.84 -76.80,35.84 -76.80,35.84 l -132.147,0.00 -114.893,204.80 -51.20,0.00 63.693-204.80 -91.827,0.00 -57.626,51.226 -51.20,0.00 L 40.986,224.025 0.00,136.96 l 51.20,0.00 57.626,51.226 91.827,0.00 -63.693-204.826 z"  />
<glyph unicode="&#xe05f;" d="M-374.218,542.236,m 630.218-62.236 c 152.087-2.844 255.007-119.478 256.00-256.00 -2.72-145.46 -119.478-255.007 -256.00-256.00 -25.255,0.098 -49.912,4.029 -72.432,10.505 4.792,7.741 9.584,16.311 14.376,25.711 10.106,20.545 14.721,42.547 19.905,63.585 2.212,9.031 5.345,20.919 9.40,35.663 4.423-8.478 12.441-15.85 24.052-22.117 30.308-14.746 67.857-9.874 94.825,3.87 37.835,21.491 60.006,54.87 71.879,92.337 22.862,86.887 -6.617,170.427 -85.425,204.026 -95.025,28.623 -201.075-7.10 -238.03-92.06 -16.135-56.778 -15.18-129.675 40.916-153.434 2.95-1.106 5.623-1.106 8.017,0.00 5.265,3.008 11.371,29.08 10.229,34.557 -0.369,1.659 -1.659,3.963 -3.87,6.911 -31.003,41.971 -12.108,104.432 16.864,135.741 49.266,42.316 125.942,49.188 171.127,8.847 40.078-46.756 30.976-119.522 5.253-165.875 -14.213-22.667 -33.28-39.797 -58.886-40.086 -26.953,0.597 -47.281,23.404 -40.363,49.21 5.88,30.284 22.193,62.402 22.67,90.678 -1.303,23.519 -13.08,38.436 -34.834,38.704 -34.726-4.379 -48.744-36.846 -49.21-66.35 1.11-14.179 1.97-28.609 8.294-40.363 -7.372-29.857 -13.086-53.909 -17.14-72.156 -6.216-32.373 -18.403-66.231 -20.181-97.59 -0.553-10.321 -0.645-19.905 -0.276-28.752 -94.859,44.985 -152.597,132.855 -153.158,234.436 2.763,147.752 119.478,255.007 256.00,256.00 z"  />
<glyph unicode="&#xe060;" d="M 0.00,437.656 L 0.00,10.344 L 512.00,10.344 L 512.00,437.656 L 0.00,437.656 z M 39.281,397.719 L 472.719,397.719 L 472.719,50.281 L 39.281,50.281 L 39.281,397.719 z M 128.625,347.562 C 116.401,347.562 106.116,343.397 97.781,335.062 C 89.447,326.728 85.281,316.443 85.281,304.219 C 85.281,292.55 89.447,282.553 97.781,274.219 C 106.116,265.884 116.401,261.719 128.625,261.719 C 140.294,261.719 150.29,265.884 158.625,274.219 C 166.96,282.553 171.125,292.55 171.125,304.219 C 171.125,316.443 166.96,326.728 158.625,335.062 C 150.29,343.397 140.294,347.562 128.625,347.562 z M 312.813,326.437 L 214.469,177.25 L 162.25,220.594 L 85.281,120.594 L 85.281,91.406 L 426.719,91.406 L 426.719,208.656 L 312.813,326.437 z "  />
<glyph unicode="&#xe061;" d="M0.00,480.00,M-374.218,542.236,m 762.838-102.727 c 75.976-47.385 122.947-129.32 123.38-215.779 0.00-28.988 -4.892-56.708 -14.675-83.159 l -108.705,0.00 z m 97.291-325.571 c -40.483-81.338 -120.057-133.494 -206.539-142.403 -44.333-2.839 -92.473,5.549 -128.272,21.197 l 0.00,121.206 z M 0.00,223.729 C 1.131,320.713 56.708,406.314 139.142,448.749 l 97.291-86.964 -227.193-203.822 c -6.16,22.465 -9.24,44.388 -9.24,65.766 z M 123.923,7.407 C 75.579,37.702 38.661,81.668 18.48,130.243 L 123.923,225.36 z M 361.444,285.148 166.318,460.706 c 29.796,10.016 60.519,16.20 89.682,16.306 36.96,0.00 72.108-7.609 105.444-22.828 z"  />
<glyph unicode="&#xe062;" d="M 256.00,480.00 C 114.615,480.00 0.00,365.385 0.00,224.00 C 0.00,82.615 114.615-32.00 256.00-32.00 C 397.385-32.00 512.00,82.615 512.00,224.00 C 512.00,365.385 397.385,480.00 256.00,480.00 z M 118.625,354.281 L 393.375,354.281 L 393.375,93.719 L 118.625,93.719 L 118.625,354.281 z M 152.531,321.406 L 152.531,178.531 L 359.469,178.531 L 359.469,321.406 L 152.531,321.406 z "  />
<glyph unicode="&#xe063;" d="M 0.00,466.781 L 0.00-18.781 L 512.00-18.781 L 512.00,466.781 L 0.00,466.781 z M 63.188,405.531 L 448.813,405.531 L 448.813,139.25 L 63.188,139.25 L 63.188,405.531 z "  />
<glyph unicode="&#xe064;" d="M 256.00,480.00 C 114.615,480.00 0.00,365.385 0.00,224.00 C 0.00,82.615 114.615-32.00 256.00-32.00 C 397.385-32.00 512.00,82.615 512.00,224.00 C 512.00,365.385 397.385,480.00 256.00,480.00 z M 164.00,378.312 C 169.275,378.624 174.042,375.471 177.656,369.875 L 212.656,303.50 C 216.341,295.635 214.248,287.213 208.75,281.594 L 192.719,265.562 C 191.729,264.206 191.078,262.68 191.063,261.00 C 197.211,237.202 215.859,215.252 232.313,200.156 C 248.766,185.061 266.449,164.623 289.406,159.781 C 292.244,158.99 295.72,158.707 297.75,160.594 L 316.375,179.562 C 322.804,184.436 332.104,186.797 338.969,182.812 L 339.281,182.812 L 402.438,145.531 C 411.708,139.72 412.669,128.488 406.031,121.656 L 362.531,78.50 C 356.108,71.912 347.573,69.697 339.281,69.687 C 302.61,70.786 267.96,88.785 239.50,107.281 C 192.785,141.267 149.933,183.418 123.031,234.344 C 112.713,255.699 100.593,282.945 101.75,306.781 C 101.853,315.748 104.279,324.533 110.594,330.312 L 154.094,373.812 C 157.482,376.695 160.835,378.126 164.00,378.312 z "  />
<glyph unicode="&#xe065;" d="M-374.218,542.236,m 879.521-484.65 -72.186-71.607 c -10.655-10.928 -24.78-14.63 -38.535-14.647 C 333.752-26.846 276.254,3.034 229.043,33.716 151.552,90.092 80.449,159.995 35.824,244.47 18.709,279.893 -1.373,325.09 0.545,364.629 c 0.171,14.873 4.179,29.471 14.654,39.058 l 72.186,72.15 c 14.99,12.75 29.486,8.342 39.078-6.51 l 58.074-110.123 c 6.113-13.046 2.607-27.024 -6.513-36.346 l -26.595-26.581 c -1.642-2.249 -2.687-4.809 -2.714-7.595 10.198-39.476 41.094-75.861 68.387-100.901 27.293-25.04 56.629-58.965 94.71-66.996 4.707-1.313 10.472-1.774 13.84,1.356 l 30.937,31.464 c 10.665,8.083 26.063,12.034 37.45,5.425 l 0.543,0.00 104.751-61.843 c 15.377-9.639 16.98-28.268 5.97-39.601 z"  />
<glyph unicode="&#xe066;" d="M-374.218,542.236,m 681.235-178.305 c 7.876,0.00 15.126-1.521 21.749-4.565 19.66-9.896 31.268-28.703 31.416-49.674 l 0.00-144.458 c -3.688-22.965 -29.973-16.72 -30.61,0.00 l 0.00,136.403 c -2.343,7.779 -17.363,4.553 -17.722,0.00 l 0.00-313.082 c -3.819-31.969 -45.13-22.585 -46.184,0.537 0.00,63.905 0.00,127.81 0.00,191.716 -2.642,12.366 -20.025,6.747 -20.407-0.537 0.737-63.724 0.537-127.452 0.537-191.179 -4.12-31.805 -45.23-23.667 -46.184-0.537 l -0.537,313.082 c -2.407,7.611 -16.325,4.692 -16.648,0.00 l 0.00-136.403 c -3.688-22.965 -29.973-16.72 -30.61,0.00 l 0.00,144.458 c 0.371,20.077 7.73,40.191 25.24,49.674 5.728,3.043 12.71,4.565 20.944,4.565 36.338,0.00 72.677,0.00 109.015,0.00 z m -0.542,65.603 c 0.00-27.871 -22.594-50.465 -50.465-50.465 -27.871,0.00 -50.465,22.594 -50.465,50.465 0.00,27.871 22.594,50.465 50.465,50.465 27.871,0.00 50.465-22.594 50.465-50.465 z"  />
<glyph unicode="&#xe067;" d="M-374.218,542.236,m 630.218-62.236 c -141.385,0.00 -256.00-114.615 -256.00-256.00 0.00-141.385 114.615-256.00 256.00-256.00 141.385,0.00 256.00,114.615 256.00,256.00 0.00,141.385 -114.615,256.00 -256.00,256.00 z m 86.128-79.968 c 7.505-0.059 14.791-2.827 20.296-8.332 l 42.602-42.586 c 11.776-11.776 10.969-31.617 -1.767-44.385 -12.768-12.768 -32.641-13.527 -44.385-1.783 l -42.586,42.586 c -11.776,11.744 -10.953,31.649 1.783,44.385 6.766,6.783 15.551,10.183 24.057,10.116 z m -70.192-56.267 85.187-85.171 -138.44-138.407 -85.187,85.187 138.44,138.391 z m -160.551-154.521 89.856-89.856 -112.357-22.50 22.50,112.357 z"  />
<glyph unicode="&#xe068;" d="M 498.844,398.612 431.635,465.821 C 413.103,484.353 381.745,483.141 361.648,462.994 341.551,442.896 340.238,411.488 358.82,392.956 l 67.209-67.209 c 18.532-18.532 49.889-17.32 70.037,2.828 20.097,20.148 21.36,51.455 2.777,70.037 z M 70.39,171.787 204.809,37.368 423.252,255.76 288.834,390.179 70.39,171.787 z M 0.00-30.953 177.289,4.546 35.498,146.337 0.00-30.953 z"  />
<glyph unicode="&#xe069;" d="M 256.00,480.00 C 114.615,480.00 0.00,365.385 0.00,224.00 C 0.00,82.615 114.615-32.00 256.00-32.00 C 397.385-32.00 512.00,82.615 512.00,224.00 C 512.00,365.385 397.385,480.00 256.00,480.00 z M 141.156,356.531 L 218.688,356.531 L 218.688,91.469 L 141.156,91.469 L 141.156,356.531 z M 293.313,356.531 L 370.844,356.531 L 370.844,91.469 L 293.313,91.469 L 293.313,356.531 z "  />
<glyph unicode="&#xe06a;" d="M-374.218,542.236,m 586.298-162.267 -91.233,0.00 0.00-311.938 91.233,0.00 z m 179.073,0.00 -91.233,0.00 0.00-311.938 91.233,0.00 z"  />
<glyph unicode="&#xe06b;" d="M 493.568,283.391 C 492.824,228.788 468.996,179.266 430.421,147.541 380.261,109.363 317.275,96.642 260.778,95.658 l 0.00-30.72 C 259.265,25.502 236.214-8.726 203.434-23.809 c -12.053-5.721 -25.364-8.144 -37.547-8.192 -17.179,0.208 -33.89,5.403 -47.787,12.288 l 0.00,88.747 c 11.722-8.259 25.154-13.818 38.571-9.899 11.868,4.404 17.30,13.686 17.408,24.917 l 0.00,246.443 86.699,0.00 0.00-153.60 c 19.921,0.276 39.572,2.462 57.685,6.485 23.745,5.763 46.36,14.857 63.488,30.037 21.019,20.025 30.20,43.868 30.379,69.973 -0.326,38.654 -19.776,70.798 -49.493,89.429 -33.682,19.271 -71.032,25.795 -106.837,25.941 -38.61-0.846 -76.612-8.439 -107.52-27.648 -31.567-20.435 -48.526-54.226 -48.811-87.723 2.005-24.14 8.186-57.75 24.576-73.045 L 68.949,150.954 c -17.943,17.945 -29.766,39.915 -37.547,62.123 -7.636,23.49 -12.874,46.874 -12.971,70.315 0.944,57.006 26.276,108.466 66.219,141.995 50.399,39.40 113.677,54.312 171.349,54.613 63.144-1.073 125.55-16.975 172.032-54.272 43.588-37.052 65.15-90.68 65.536-142.336 z"  />
<glyph unicode="&#xe06c;" d="M 256.00,480.00 C 114.615,480.00 0.00,365.385 0.00,224.00 C 0.00,82.615 114.615-32.00 256.00-32.00 C 397.385-32.00 512.00,82.615 512.00,224.00 C 512.00,365.385 397.385,480.00 256.00,480.00 z M 317.25,384.344 C 337.362,384.158 356.298,375.139 374.094,357.344 C 393.853,337.116 405.195,311.288 397.813,281.437 C 393.594,265.619 383.599,249.458 367.781,232.937 C 319.869,185.946 276.785,142.167 221.719,87.406 C 211.186,77.058 192.367,64.423 173.219,63.656 C 157.293,63.781 144.454,70.329 132.594,82.125 C 119.976,94.904 110.645,111.521 112.031,132.219 C 113.789,146.982 121.002,160.689 133.656,173.344 L 256.531,296.187 C 274.69,314.187 300.251,328.121 324.531,307.281 C 346.485,284.539 332.463,259.92 312.938,239.781 L 199.563,126.937 L 177.938,149.094 L 290.781,261.937 C 295.936,267.113 306.466,276.164 302.375,285.656 C 297.042,290.47 284.269,279.685 278.656,274.062 L 155.813,151.187 C 149.669,145.00 144.326,138.495 143.156,129.062 C 142.102,120.978 145.782,112.718 154.219,104.281 C 170.574,89.112 181.958,93.445 199.563,109.531 C 246.405,156.374 283.997,193.557 332.188,241.625 C 348.029,257.467 359.478,267.452 367.781,289.344 C 374.329,314.018 348.99,349.099 320.313,353.125 C 301.491,354.881 285.078,342.523 271.281,329.406 L 136.813,194.969 L 114.688,216.562 L 249.125,351.562 C 270.216,372.302 291.569,383.195 313.188,384.25 C 314.539,384.316 315.909,384.356 317.25,384.344 z "  />
<glyph unicode="&#xe06d;" d="M-374.218,542.236,m 576.267-536.351 c 87.924,87.436 156.701,157.33 233.203,232.361 25.257,26.379 41.252,52.197 47.988,77.454 11.787,47.662 -6.335,88.935 -37.885,121.232 C 415.046,467.238 382.633,481.55 348.116,479.867 313.599,478.183 279.502,460.784 245.827,427.67 L 31.146,212.147 66.505,177.629 281.186,392.31 c 22.029,20.944 48.243,40.689 78.295,37.885 45.789-6.428 86.225-62.471 75.77-101.868 -13.257-34.954 -31.533-50.896 -56.827-76.191 -76.945-76.749 -136.942-136.10 -211.734-210.893 -28.109-25.685 -46.288-32.639 -72.402-8.419 -13.47,13.47 -19.363,26.66 -17.68,39.569 1.868,15.062 10.395,25.479 20.205,35.359 L 292.973,303.912 c 8.961,8.977 29.37,26.208 37.885,18.522 6.532-15.156 -10.291-29.621 -18.522-37.885 l -180.164-180.164 34.517-35.359 181.006,180.164 c 31.176,32.156 53.575,71.45 18.522,107.761 C 327.448,390.226 286.608,368.012 257.613,339.272 L 61.454,143.112 c -20.205-20.205 -31.711-42.094 -34.517-65.667 -2.213-33.047 12.686-59.575 32.834-79.979 18.937-18.834 39.397-29.267 64.825-29.466 30.574,1.224 60.635,21.362 77.454,37.885 z"  />
<glyph unicode="&#xe06e;" d="M 256.00,480.00 C 114.615,480.00 0.00,365.385 0.00,224.00 C 0.00,82.615 114.615-32.00 256.00-32.00 C 397.385-32.00 512.00,82.615 512.00,224.00 C 512.00,365.385 397.385,480.00 256.00,480.00 z M 365.844,360.094 L 419.031,306.906 L 252.906,140.75 L 200.031,87.906 L 146.844,141.094 L 92.969,195.00 L 145.813,247.844 L 199.688,193.937 L 365.844,360.094 z "  />
<glyph unicode="&#xe06f;" d="M 256.00,480.00 C 114.616,480.00 0.00,365.384 0.00,224.00 C 0.00,82.616 114.616-32.00 256.00-32.00 C 397.384-32.00 512.00,82.616 512.00,224.00 C 512.00,365.384 397.384,480.00 256.00,480.00 z M 256.00,424.375 C 366.664,424.375 456.344,334.637 456.344,224.00 C 456.344,113.363 366.664,23.656 256.00,23.656 C 145.336,23.656 55.656,113.363 55.656,224.00 C 55.656,334.637 145.336,424.375 256.00,424.375 z M 354.094,345.562 L 205.719,197.156 L 157.594,245.281 L 110.375,198.094 L 158.50,149.969 L 206.031,102.437 L 253.219,149.656 L 401.625,298.031 L 354.094,345.562 z "  />
<glyph unicode="&#xe070;" d="M-374.218,542.236,m 802.692-104.541 -260.881-260.881 -84.61,84.61 -82.983-82.983 84.61-84.61 83.525-83.525 82.983,82.983 260.881,260.881 -83.525,83.525 z"  />
<glyph unicode="&#xe071;" d="M 219.281,480.00 L 219.281,183.906 L 292.719,183.906 L 292.719,480.00 L 219.281,480.00 z M 74.969,405.031 C 28.642,358.704 0.00,294.692 0.00,224.00 C 0.00,82.615 114.615-32.00 256.00-32.00 C 397.385-32.00 512.00,82.615 512.00,224.00 C 512.00,294.692 483.358,358.704 437.031,405.031 L 385.469,353.469 C 418.603,320.334 439.094,274.556 439.094,224.00 C 439.094,122.888 357.112,40.906 256.00,40.906 C 154.888,40.906 72.906,122.888 72.906,224.00 C 72.906,274.556 93.397,320.334 126.531,353.469 L 74.969,405.031 z "  />
<glyph unicode="&#xe072;" d="M0.00,480.00,M -36.884,56.255,m 37.49,154.789 c -0.777,4.261 -0.586,7.879 -0.586,12.313 l 0.00,1.173 c 69.684,5.978 145.596,23.531 202.097,63.909 16.212-7.428 32.155-6.414 47.449,1.173 32.044-32.365 63.491-54.858 105.442-68.013 4.296-10.945 11.13-19.349 20.503-25.212 C 364.186,168.242 348.37,143.422 328.062,121.923 298.048,143.544 258.417,127.888 244.88,96.711 151.009,97.728 56.396,138.798 0.606,211.044 z M 244.294,59.773 C 196.374,35.024 145.796,21.681 94.333,24.594 54.526,57.995 25.842,101.657 11.151,147.135 75.80,91.57 161.726,59.861 244.294,59.773 z m 106.028,7.036 c 54.531,11.375 104.638,33.301 145.276,66.841 -53.339-139.067 -213.964-202.641 -345.615-143.649 42.736,6.157 82.88,20.918 117.158,40.456 34.255-19.63 75.021,1.018 83.182,36.352 z m 100.756,143.062 c 20.99,1.549 41.458,3.094 60.922,6.45 -0.038-5.241 -0.579-10.40 -0.586-15.244 C 474.818,154.243 419.81,122.245 364.967,107.265 c 20.465,24.847 35.646,52.447 46.277,80.326 16.715,2.169 30.367,9.846 39.834,22.28 z m 9.373,37.525 c -2.311,17.38 -11.004,31.486 -24.603,40.456 4.297,39.795 5.006,78.624 1.757,116.091 41.027-42.353 65.87-96.411 72.638-150.098 -14.84-3.127 -31.438-5.277 -49.792-6.45 z M 175.171,314.822 C 123.424,282.218 62.832,266.38 2.95,261.467 17.904,354.925 81.561,432.165 166.97,463.748 169.29,433.397 176.319,404.096 187.473,378.731 169.565,360.546 165.312,337.232 175.171,314.822 z m 100.756,43.388 c 26.972,33.489 49.395,67.71 62.094,107.883 21.869-7.427 41.591-17.003 59.165-28.73 6.138-48.291 6.991-96.391 2.343-141.303 -21.217-3.622 -37.898-16.531 -45.106-35.179 -31.324,11.34 -56.966,32.456 -79.667,55.114 5.702,14.711 5.917,28.499 1.172,42.215 z m -54.478,34.593 c -10.899,26.943 -18.013,53.052 -18.159,81.499 32.682,7.519 67.966,7.269 98.998,1.173 -11.855-33.189 -30.586-63.949 -50.378-89.121 -6.964,2.975 -23.926,9.60 -30.461,6.45 z"  />
<glyph unicode="&#xe073;" d="M 155.647,445.726 142.668,108.327 c -17.466,8.962 -39.378,12.84 -62.37,9.578 -49.575-7.021 -85.273-44.419 -79.731-83.519 5.543-39.103 50.224-65.103 99.798-58.08 43.997,6.235 77.023,36.396 80.024,70.432 l 0.01-0.019 c 0.006,0.077 0.011,0.193 0.018,0.28 0.073,0.865 0.115,1.741 0.147,2.611 1.846,35.144 13.148,302.091 13.148,302.091 l 278.363,28.68 -12.572-240.417 c -17.864,9.942 -40.823,14.371 -64.966,10.95 -49.575-7.028 -85.271-44.418 -79.728-83.523 5.541-39.099 50.222-65.104 99.798-58.073 44.934,6.36 78.412,37.683 80.168,72.606 l 0.021,0.021 C 495.739,97.64 511.445,460.032 512.00,472.838 z"  />
<glyph unicode="&#xe074;" d="M-374.218,542.236,m 374.218-318.236 88.281-88.281 -0.266,61.766 141.469,0.00 0.00-141.719 -60.984-0.266 87.50-87.50 88.281,88.281 -61.766-0.266 0.00,141.469 141.719,0.00 0.266-60.984 87.50,87.50 -88.281,88.281 0.266-61.766 -141.469,0.00 0.00,141.719 60.984,0.266 -87.50,87.50 -88.281-88.281 61.766,0.266 0.00-141.469 -141.719,0.00 -0.266,60.984 -87.50-87.50 z"  />
<glyph unicode="&#xe075;" d="M 256.00,480.00 C 114.615,480.00 0.00,365.385 0.00,224.00 C 0.00,82.615 114.615-32.00 256.00-32.00 C 397.385-32.00 512.00,82.615 512.00,224.00 C 512.00,365.385 397.385,480.00 256.00,480.00 z M 109.00,265.625 L 403.031,265.625 L 403.031,182.375 L 109.00,182.375 L 109.00,265.625 z "  />
<glyph unicode="&#xe076;" d="M-374.218,542.236,m 374.218-245.736 512.00,0.00 0.00-145.00 -512.00,0.00 z"  />
<glyph unicode="&#xe077;" d="M 256.00,480.00 C 114.615,480.00 0.00,365.385 0.00,224.00 C 0.00,82.615 114.615-32.00 256.00-32.00 C 397.385-32.00 512.00,82.615 512.00,224.00 C 512.00,365.385 397.385,480.00 256.00,480.00 z M 247.031,390.50 L 247.031,341.125 L 265.313,341.125 L 265.313,390.50 C 273.748,389.81 282.101,388.129 290.219,385.656 L 290.219,341.125 L 308.50,341.125 L 308.50,378.375 C 316.457,374.414 324.053,369.629 331.00,363.875 C 331.037,363.844 331.057,363.812 331.094,363.781 L 331.094,181.375 C 331.057,181.344 331.037,181.312 331.00,181.281 C 310.198,164.112 283.566,154.26 256.00,154.25 C 229.058,154.302 202.222,163.702 181.00,181.281 C 180.963,181.312 180.943,181.344 180.906,181.375 L 180.906,363.781 C 180.943,363.812 180.963,363.844 181.00,363.875 C 187.994,369.648 195.686,374.509 203.813,378.531 L 203.813,341.125 L 222.125,341.125 L 222.125,385.781 C 230.192,388.222 238.532,389.837 247.031,390.50 z M 144.969,244.75 L 166.531,244.75 L 166.531,162.094 C 190.947,142.155 222.071,130.187 256.00,130.187 C 289.929,130.187 321.053,142.155 345.469,162.094 L 345.469,244.75 L 367.031,244.75 L 367.031,151.344 C 360.339,145.167 353.116,139.565 345.469,134.562 C 327.852,123.036 307.923,114.803 286.50,110.75 L 286.50,80.375 L 322.563,80.375 L 322.563,57.50 L 286.50,57.50 L 225.50,57.50 L 189.438,57.50 L 189.438,80.375 L 225.50,80.375 L 225.50,110.75 C 204.077,114.803 184.148,123.036 166.531,134.562 C 158.885,139.565 151.661,145.167 144.969,151.344 L 144.969,244.75 z M 225.50,110.75 C 235.376,108.881 245.582,107.906 256.00,107.906 C 266.418,107.906 276.624,108.881 286.50,110.75 L 286.50,121.531 L 225.50,121.531 L 225.50,110.75 z "  />
<glyph unicode="&#xe078;" d="M 242.188,480.00 C 229.12,478.981 216.309,476.471 203.906,472.719 L 203.906,404.062 L 175.781,404.062 L 175.781,461.594 C 163.287,455.409 151.441,447.938 140.688,439.062 C 140.631,439.016 140.588,438.953 140.531,438.906 L 140.531,158.469 C 140.588,158.422 140.631,158.36 140.688,158.312 C 173.315,131.285 214.578,116.83 256.00,116.75 C 298.382,116.766 339.33,131.916 371.313,158.312 C 371.37,158.36 371.413,158.422 371.469,158.469 L 371.469,438.906 C 371.412,438.953 371.369,439.015 371.313,439.062 C 360.632,447.91 348.952,455.254 336.719,461.344 L 336.719,404.062 L 308.594,404.062 L 308.594,472.531 C 296.113,476.333 283.281,478.94 270.313,480.00 L 270.313,404.062 L 242.188,404.062 L 242.188,480.00 z M 85.313,255.906 L 85.313,112.312 C 95.602,102.816 106.681,94.192 118.438,86.50 C 145.523,68.779 176.188,56.106 209.125,49.875 L 209.125,66.437 L 302.875,66.437 L 302.875,49.875 C 335.812,56.106 366.477,68.779 393.563,86.50 C 405.319,94.192 416.398,102.816 426.688,112.312 L 426.688,255.906 L 393.563,255.906 L 393.563,128.812 C 356.024,98.158 308.165,79.75 256.00,79.75 C 203.835,79.75 155.976,98.158 118.438,128.812 L 118.438,255.906 L 85.313,255.906 z M 302.875,49.875 C 287.691,47.002 272.017,45.50 256.00,45.50 C 239.983,45.50 224.309,47.002 209.125,49.875 L 209.125,3.156 L 153.656,3.156 L 153.656-32.00 L 209.125-32.00 L 302.875-32.00 L 358.344-32.00 L 358.344,3.156 L 302.875,3.156 L 302.875,49.875 z "  />
<glyph unicode="&#xe079;" d="M 256.00,480.00 C 114.615,480.00 0.00,365.385 0.00,224.00 C 0.00,82.615 114.615-32.00 256.00-32.00 C 397.385-32.00 512.00,82.615 512.00,224.00 C 512.00,365.385 397.385,480.00 256.00,480.00 z M 256.00,393.281 C 326.479,393.281 383.625,336.135 383.625,265.656 C 383.625,244.307 377.775,216.124 365.75,200.187 L 256.00,54.719 L 146.25,200.187 C 133.011,217.733 128.375,242.086 128.375,265.656 C 128.375,336.135 185.521,393.281 256.00,393.281 z M 256.00,319.344 C 226.345,319.344 202.313,295.311 202.313,265.656 C 202.313,236.002 226.345,211.969 256.00,211.969 C 285.655,211.969 309.688,236.002 309.688,265.656 C 309.688,295.311 285.655,319.344 256.00,319.344 z "  />
<glyph unicode="&#xe07a;" d="M-374.218,542.236,m 630.218-62.236 c -106.591,0.00 -193.00-86.409 -193.00-193.00 0.00-35.647 6.977-72.464 27.00-99.00 l 166.00-220.00 166.00,220.00 c 18.187,24.103 27.00,66.712 27.00,99.00 0.00,106.591 -86.409,193.00 -193.00,193.00 z m 0.00-111.781 c 44.849,0.00 81.219-36.369 81.219-81.219 0.00-44.849 -36.369-81.219 -81.219-81.219 -44.849,0.00 -81.219,36.369 -81.219,81.219 0.00,44.849 36.369,81.219 81.219,81.219 z"  />
<glyph unicode="&#xe07b;" d="M0.00,480.00,M-374.218,542.236,m 684.617-62.236 0.00-71.288 77.801,0.00 -102.553-101.87 c -28.776,18.622 -63.076,29.428 -99.904,29.428 -101.694,0.00 -184.143-82.433 -184.143-184.127 0.00-101.694 82.449-184.143 184.143-184.143 101.694,0.00 184.127,82.449 184.127,184.143 0.00,38.654 -11.906,74.526 -32.256,104.145 l 100.83,100.83 0.00-77.119 71.288,0.00 c 0.00,62.496 0.677,137.667 0.666,200.00 z M 185.744,262.154 c 60.763,0.00 110.011-49.249 110.011-110.011 0.00-60.763 -49.249-110.028 -110.011-110.028 -60.763,0.00 -110.028,49.265 -110.028,110.028 0.00,60.763 49.265,110.011 110.028,110.011 z"  />
<glyph unicode="&#xe07c;" d="M 256.00,480.00 C 124.481,480.00 17.469,379.381 17.469,255.687 C 17.469,249.20 17.762,242.641 18.344,236.125 L 23.031,137.531 L 173.75,149.906 L 169.063,248.437 C 168.859,250.794 168.719,253.273 168.719,255.687 C 168.719,300.953 207.884,337.75 256.00,337.75 C 304.116,337.75 343.281,300.923 343.281,255.687 C 343.281,253.273 343.17,250.823 342.938,248.437 L 338.281,149.906 L 488.969,137.531 L 493.656,236.125 C 494.238,242.641 494.531,249.20 494.531,255.687 C 494.531,379.381 387.519,480.00 256.00,480.00 z M 332.656,91.031 L 323.594-4.625 C 322.779-13.643 329.929-21.621 339.50-22.406 L 455.406-31.906 C 464.948-32.692 473.467-26.018 474.281-17.00 L 483.375,78.594 L 332.656,91.031 z M 179.281,90.969 L 28.625,78.562 L 37.688-17.00 C 38.531-26.018 47.052-32.723 56.594-31.938 L 172.50-22.438 C 182.042-21.652 189.219-13.645 188.375-4.656 L 179.281,90.969 z "  />
<glyph unicode="&#xe07d;" d="M 256.00,480.00 C 114.615,480.00 0.00,365.385 0.00,224.00 C 0.00,82.615 114.615-32.00 256.00-32.00 C 397.385-32.00 512.00,82.615 512.00,224.00 C 512.00,365.385 397.385,480.00 256.00,480.00 z M 254.156,362.812 C 288.727,362.648 320.327,340.602 333.75,309.844 C 338.341,299.131 340.781,288.125 340.781,276.187 L 340.781,245.75 L 382.719,245.75 L 382.719,85.187 L 129.281,85.187 L 129.281,245.75 L 167.844,245.75 C 167.494,267.257 167.052,291.86 174.594,309.844 C 189.258,342.232 219.585,362.977 254.156,362.812 z M 252.281,311.687 C 233.132,311.284 220.503,296.723 218.656,276.187 L 218.656,245.75 L 289.969,245.75 L 289.969,276.187 L 289.969,276.50 C 289.09,295.973 274.352,311.151 254.156,311.687 C 253.525,311.704 252.899,311.701 252.281,311.687 z "  />
<glyph unicode="&#xe07e;" d="M 0.00,480.00,m 252.625,0.00 c -63.757,0.304 -119.737-37.925 -146.781-97.656 -13.909-33.166 -13.082-78.587 -12.438-118.25 l -71.094,0.00 0.00-296.094 467.375,0.00 0.00,296.094 -77.313,0.00 0.00,56.156 c 0.00,22.015 -4.533,42.336 -13.00,62.094 C 374.62,439.068 316.382,479.696 252.625,480.00 z m 0.00-94.281 c 37.245-0.989 64.41-28.994 66.031-64.906 l 0.00-0.563 0.00-56.156 -131.531,0.00 0.00,56.156 c 3.516,39.093 28.255,66.457 65.50,65.469 z"  />
<glyph unicode="&#xe07f;" d="M 256.00,480.00 C 228.195,480.00 206.781,456.801 206.781,429.062 C 206.781,402.345 206.594,378.969 206.594,378.969 L 157.156,378.969 C 156.226,378.969 155.326,378.866 154.438,378.719 L 140.688,378.719 L 140.688,362.531 L 140.688,330.687 L 371.313,330.687 L 371.313,362.531 L 371.313,378.719 L 357.563,378.719 C 356.675,378.866 355.774,378.969 354.844,378.969 L 305.406,378.969 C 305.406,378.969 305.969,400.13 305.969,428.906 C 305.969,455.624 283.805,480.00 256.00,480.00 z M 74.75,431.281 L 74.75-32.00 L 437.25-32.00 L 437.25,431.281 L 322.406,431.281 L 322.406,397.719 L 404.063,397.719 L 404.063,1.625 L 107.969,1.625 L 107.969,397.719 L 189.594,397.719 L 189.594,431.281 L 74.75,431.281 z M 256.00,430.656 C 265.109,430.656 272.469,423.326 272.469,414.25 C 272.469,405.157 265.109,397.812 256.00,397.812 C 246.891,397.812 239.531,405.157 239.531,414.25 C 239.531,423.326 246.891,430.656 256.00,430.656 z M 140.688,298.125 L 140.688,281.687 L 157.156,281.687 L 157.156,298.125 L 140.688,298.125 z M 190.125,297.812 L 190.125,281.375 L 371.313,281.375 L 371.313,297.812 L 190.125,297.812 z M 140.688,236.125 L 140.688,219.687 L 157.156,219.687 L 157.156,236.125 L 140.688,236.125 z M 190.125,235.812 L 190.125,219.344 L 371.313,219.344 L 371.313,235.812 L 190.125,235.812 z M 140.688,174.125 L 140.688,157.687 L 157.156,157.687 L 157.156,174.125 L 140.688,174.125 z M 190.125,173.781 L 190.125,157.344 L 371.313,157.344 L 371.313,173.781 L 190.125,173.781 z M 140.688,112.094 L 140.688,95.656 L 157.156,95.656 L 157.156,112.094 L 140.688,112.094 z M 190.125,111.75 L 190.125,95.312 L 371.313,95.312 L 371.313,111.75 L 190.125,111.75 z M 140.688,50.094 L 140.688,33.656 L 157.156,33.656 L 157.156,50.094 L 140.688,50.094 z M 190.125,49.75 L 190.125,33.312 L 371.313,33.312 L 371.313,49.75 L 190.125,49.75 z "  />
<glyph unicode="&#xe080;" d="M-374.218,542.236,m 374.218-482.034 92.202,0.00 0.00-92.202 -92.202,0.00 z m 0.00,0.00 92.202,0.00 0.00-92.202 -92.202,0.00 z m 0.00,139.933 92.202,0.00 0.00-92.202 -92.202,0.00 z m 0.00,139.933 92.202,0.00 0.00-92.202 -92.202,0.00 z m 0.00,139.933 92.202,0.00 0.00-92.202 -92.202,0.00 z m 135.508-419.798 376.492,0.00 0.00-92.202 -376.492,0.00 z m 0.00,0.00 376.492,0.00 0.00-92.202 -376.492,0.00 z m 0.00,139.933 376.492,0.00 0.00-92.202 -376.492,0.00 z m 0.00,139.933 376.492,0.00 0.00-92.202 -376.492,0.00 z m 0.00,139.933 376.492,0.00 0.00-92.202 -376.492,0.00 z"  />
<glyph unicode="&#xe081;" d="M 0.00,480.00 L 0.00-32.00 L 512.00-32.00 L 512.00,480.00 L 0.00,480.00 z M 125.563,379.344 C 145.842,379.115 165.818,365.125 166.688,340.906 C 167.121,319.371 148.353,302.966 125.031,302.469 L 124.469,302.469 C 104.391,302.701 84.784,317.042 83.875,340.906 C 84.161,362.203 102.063,378.839 125.563,379.344 z M 343.125,277.594 C 365.421,277.456 386.463,270.841 403.75,253.219 C 421.716,233.183 427.483,205.556 428.125,177.469 L 428.125,49.719 L 354.50,49.719 L 354.50,168.781 C 354.337,191.097 346.692,218.222 317.156,219.125 C 299.846,218.941 287.64,208.882 279.281,192.062 C 277.00,186.649 276.671,180.426 276.563,174.219 L 276.563,49.719 L 202.969,49.719 C 203.25,111.96 203.637,174.196 203.50,236.437 C 203.50,254.118 203.33,266.023 202.969,272.156 L 276.563,272.156 L 276.563,240.781 C 282.809,249.666 289.737,258.092 299.031,264.875 C 311.637,273.871 326.779,277.32 343.125,277.594 z M 88.219,272.156 L 161.813,272.156 L 161.813,49.719 L 88.219,49.719 L 88.219,272.156 z "  />
<glyph unicode="&#xe082;" d="M0.00,1020.362,m 56.172-898.557 c -3.183,7.673 -7.145,15.299 -8.305,23.575 C 32.598,252.096 119.666,338.619 198.691,371.482 c 79.025,32.863 170.014-19.412 223.959,36.701 13.477,15.218 27.194,29.629 47.685,29.736 8.541-0.424 15.654-4.438 19.288-11.519 67.428-138.107 -28.908-301.863 -137.697-360.049 -69.039-34.125 -140.479-41.633 -207.349-18.485 -18.595,4.41 -33.50,23.858 -52.775,24.11 -13.292-7.458 -24.332-31.758 -33.353-45.14 -10.507-18.235 -31.427-23.056 -46.479-7.099 -43.904,43.267 47.335,81.667 44.202,102.067 z m 58.669,17.681 c 9.429-7.618 23.031-5.458 30.272,2.143 57.895,70.147 136.289,100.921 221.548,98.585 12.564-0.729 21.695,9.445 22.503,20.36 0.252,12.962 -9.723,21.728 -20.896,22.503 -103.045,5.728 -192.446-39.708 -255.57-113.051 -7.996-9.984 -6.544-23.269 2.143-30.54 z"  />
<glyph unicode="&#xe083;" d="M 256.00,480.00 C 114.615,480.00 0.00,365.385 0.00,224.00 C 0.00,82.615 114.615-32.00 256.00-32.00 C 397.385-32.00 512.00,82.615 512.00,224.00 C 512.00,365.385 397.385,480.00 256.00,480.00 z M 123.719,341.812 L 388.281,341.812 L 388.281,168.656 L 123.719,168.656 L 123.719,341.812 z M 156.531,310.25 L 156.531,200.187 L 355.469,200.187 L 355.469,310.25 L 156.531,310.25 z M 90.563,152.906 L 421.438,152.906 L 421.438,123.625 L 404.625,106.187 L 107.375,106.187 L 90.563,123.625 L 90.563,152.906 z M 225.313,143.312 L 225.313,116.781 L 286.688,116.781 L 286.688,143.312 L 225.313,143.312 z "  />
<glyph unicode="&#xe084;" d="M 51.313,406.437 L 51.313,138.469 L 460.688,138.469 L 460.688,406.437 L 51.313,406.437 z M 102.094,357.594 L 409.906,357.594 L 409.906,187.281 L 102.094,187.281 L 102.094,357.594 z M 0.00,114.094 L 0.00,68.781 L 26.00,41.812 L 486.00,41.812 L 512.00,68.781 L 512.00,114.094 L 0.00,114.094 z M 208.531,99.25 L 303.469,99.25 L 303.469,58.219 L 208.531,58.219 L 208.531,99.25 z "  />
<glyph unicode="&#xe085;" d="M-374.218,542.236,m 514.276-175.308 c -77.348,0.00 -140.058-62.694 -140.058-140.042 0.00-77.348 62.71-140.058 140.058-140.058 69.001,0.00 126.329,49.903 137.901,115.585 0.13-0.007 0.258-0.027 0.389-0.032 l 53.925,0.00 0.00-77.849 59.536,0.00 0.00,77.849 28.073,0.00 0.00-112.669 59.536,0.00 0.00,112.67 32.582,0.00 0.00,59.536 -235.906,0.00 c -0.138-0.011 -0.269-0.021 -0.405-0.032 -15.541,60.409 -70.368,105.043 -135.631,105.043 z m 0.00-64.791 c 41.564,0.00 75.251-33.688 75.251-75.251 0.00-41.564 -33.688-75.267 -75.251-75.267 -41.564,0.00 -75.267,33.704 -75.267,75.267 0.00,41.564 33.704,75.251 75.267,75.251 z"  />
<glyph unicode="&#xe086;" d="M-374.218,542.236,m 620.959-537.885 65.157,0.00 -7.202-36.351 -199.93,0.00 7.202,36.351 65.157,0.00 87.791,438.955 -65.157,0.00 7.545,36.694 199.93,0.00 -7.545-36.694 -65.157,0.00 -87.791-438.955"  />
<glyph unicode="&#xe087;" d="M 256.00,480.00 C 114.615,480.00 0.00,365.385 0.00,224.00 C 0.00,82.615 114.615-32.00 256.00-32.00 C 397.385-32.00 512.00,82.615 512.00,224.00 C 512.00,365.385 397.385,480.00 256.00,480.00 z M 167.344,333.719 L 344.625,333.719 C 356.557,332.911 365.56,324.229 365.719,313.219 L 365.719,135.344 C 364.873,122.945 355.853,114.432 344.625,114.281 L 167.344,114.281 C 154.954,115.126 146.432,124.126 146.281,135.344 L 146.281,313.219 C 146.965,325.093 156.85,333.578 167.344,333.719 z M 197.188,293.344 C 190.825,293.186 186.723,288.29 186.656,282.781 L 186.656,165.781 C 186.821,159.43 191.694,155.285 197.188,155.219 L 314.781,155.219 C 321.146,155.384 325.278,160.276 325.344,165.781 L 325.344,282.781 C 325.188,289.158 320.302,293.278 314.781,293.344 L 197.188,293.344 z "  />
<glyph unicode="&#xe088;" d="M 0.00,480.00 L 0.00,333.969 L 151.563,333.969 C 174.879,363.873 211.393,383.156 252.469,383.156 C 293.547,383.156 330.09,363.876 353.406,333.969 L 512.00,333.969 L 512.00,480.00 L 0.00,480.00 z M 409.719,458.281 L 457.594,458.281 C 474.638,458.281 488.344,444.544 488.344,427.50 L 488.344,387.406 C 488.344,370.362 474.638,356.625 457.594,356.625 L 409.719,356.625 C 392.675,356.625 378.969,370.362 378.969,387.406 L 378.969,427.50 C 378.969,444.544 392.675,458.281 409.719,458.281 z M 56.219,457.812 L 73.688,457.812 L 73.688,356.594 L 56.219,356.594 L 56.219,457.812 z M 86.25,457.812 L 104.25,457.812 L 104.25,356.594 L 86.25,356.594 L 86.25,457.812 z M 116.813,457.812 L 134.281,457.812 L 134.281,427.50 L 134.281,386.375 L 134.281,356.594 L 116.813,356.594 L 116.813,457.812 z M 43.125,455.094 L 43.125,356.594 L 25.094,356.594 L 25.094,427.50 C 25.094,433.631 26.824,439.227 30.281,444.281 C 33.738,449.333 38.031,452.929 43.125,455.094 z M 252.281,368.656 C 190.175,368.656 139.813,318.52 139.813,256.719 C 139.813,194.917 190.175,144.812 252.281,144.812 C 314.388,144.812 364.75,194.917 364.75,256.719 C 364.75,318.52 314.388,368.656 252.281,368.656 z M 252.281,345.937 C 301.802,345.937 341.938,305.997 341.938,256.719 C 341.938,207.441 301.802,167.50 252.281,167.50 C 202.76,167.50 162.625,207.441 162.625,256.719 C 162.625,305.997 202.76,345.937 252.281,345.937 z M 0.00,313.281 L 0.00-32.00 L 512.00-32.00 L 512.00,313.281 L 366.563,313.281 C 375.15,296.277 379.969,277.061 379.969,256.75 C 379.969,186.95 322.879,130.375 252.469,130.375 C 182.058,130.375 125.00,186.95 125.00,256.75 C 125.00,277.065 129.846,296.274 138.438,313.281 L 0.00,313.281 z "  />
<glyph unicode="&#xe089;" d="M 256.00,480.00 C 114.615,480.00 0.00,365.385 0.00,224.00 C 0.00,82.615 114.615-32.00 256.00-32.00 C 397.385-32.00 512.00,82.615 512.00,224.00 C 512.00,365.385 397.385,480.00 256.00,480.00 z M 247.969,392.156 C 259.699,392.156 269.251,388.993 276.625,382.625 C 283.998,376.257 287.687,367.858 287.688,357.469 C 287.687,347.078 283.998,338.712 276.625,332.344 C 269.251,325.975 259.699,322.781 247.969,322.781 C 236.238,322.781 226.686,325.975 219.313,332.344 C 212.274,338.712 208.75,347.078 208.75,357.469 C 208.75,367.858 212.274,376.257 219.313,382.625 C 226.686,388.993 236.238,392.156 247.969,392.156 z M 284.656,280.062 L 294.719,268.50 C 289.356,254.423 286.656,238.843 286.656,221.75 L 286.656,98.562 C 286.656,94.205 287.017,91.207 287.688,89.531 C 288.693,87.855 290.867,86.176 294.219,84.50 C 300.252,80.813 309.113,77.289 320.844,73.937 L 317.344,55.844 C 288.52,58.86 268.231,60.344 256.50,60.344 C 244.769,60.344 224.676,58.86 196.188,55.844 L 192.156,73.937 C 204.222,76.619 213.115,79.978 218.813,84.00 C 223.84,87.016 226.344,91.859 226.344,98.562 L 226.344,224.25 C 226.344,235.981 221.799,241.844 212.75,241.844 L 195.156,238.344 L 191.156,258.437 C 203.222,263.465 219.132,268.339 238.906,273.031 C 258.681,277.723 273.931,280.062 284.656,280.062 z "  />
<glyph unicode="&#xe08a;" d="M 0.00,437.25 L 0.00,362.094 L 512.00,362.094 L 512.00,437.219 L 0.00,437.25 z M 512.00,320.125 L 367.813,224.00 L 512.00,127.875 L 512.00,320.125 z M 0.00,319.562 L 0.00,244.656 L 296.00,244.656 L 296.00,319.562 L 0.00,319.562 z M 0.00,202.781 L 0.00,127.875 L 296.00,127.875 L 296.00,202.781 L 0.00,202.781 z M 512.00,85.906 L 0.00,85.875 L 0.00,10.781 L 512.00,10.781 L 512.00,85.906 z "  />
<glyph unicode="&#xe08b;" d="M-374.218,542.236,m 886.218-105.002 0.00-75.156 -512.00,0.00 0.00,75.125 512.00,0.031 z m -512.00-117.125 144.188-96.125 -144.188-96.125 0.00,192.25 z m 512.00-0.563 0.00-74.906 -296.00,0.00 0.00,74.906 296.00,0.00 z m 0.00-116.781 0.00-74.906 -296.00,0.00 0.00,74.906 296.00,0.00 z m -512.00-116.875 512.00-0.031 0.00-75.094 -512.00,0.00 0.00,75.125 z"  />
<glyph unicode="&#xe08c;" d="M0.00,1020.362,m 0.00-955.141 0.00,177.284 C 0.935,261.267 16.123,274.814 32.81,275.039 l 79.405,0.00 c 22.697,17.431 38.783,41.623 60.657,59.141 7.72,6.158 13.694,13.005 17.921,20.541 13.744,27.00 5.417,58.434 24.952,79.957 39.257,16.846 86.285-6.72 99.533-43.701 10.413-30.199 3.435-60.316 -9.512-86.988 46.872,0.077 93.743-0.302 140.614-0.551 38.158-2.849 65.366-28.54 65.62-65.068 -0.104-36.811 -31.839-63.58 -65.62-64.241 l -55.143,0.00 c -1.838-10.845 -5.422-20.679 -10.753-29.501 3.089-22.675 -3.98-44.905 -17.646-60.933 -7.499-130.88 -178.962-53.231 -243.179-51.283 l -86.85,0.00 C 13.916,33.306 0.225,48.45 0.00,65.221 z m 118.281,0.00 c 51.381-1.106 226.948-78.788 210.094,32.534 18.579,10.014 25.728,36.815 14.337,53.764 17.308,17.069 22.237,38.513 5.514,55.418 16.543,0.00 32.902,0.092 49.077,0.276 16.175,0.184 32.534,0.276 49.077,0.276 18.931,0.398 32.052,14.288 32.258,30.88 -0.432,19.616 -15.323,32.058 -32.258,32.258 -64.164,0.003 -127.416,0.545 -186.934,0.551 5.356,42.992 56.648,101.37 4.274,135.237 -8.385,4.118 -15.09,5.866 -23.849,4.274 -1.47-0.735 -2.298-1.47 -2.481-2.206 -0.184-0.735 -0.46-1.93 -0.827-3.584 -5.566-34.078 -10.761-68.152 -37.221-90.71 -29.125-22.333 -46.299-57.493 -79.681-71.686 l -1.379,0.00 z"  />
<glyph unicode="&#xe08d;" d="M 512.00,65.221 512.00,242.505 c -0.935,18.762 -16.123,32.309 -32.81,32.534 l -79.405,0.00 c -22.697,17.431 -38.783,41.623 -60.657,59.141 -7.72,6.158 -13.694,13.005 -17.921,20.541 -13.744,27.00 -5.417,58.434 -24.952,79.957 -39.257,16.846 -86.285-6.72 -99.533-43.701 -10.413-30.199 -3.435-60.316 9.512-86.988 -46.872,0.077 -93.743-0.302 -140.614-0.551 -38.158-2.849 -65.366-28.54 -65.62-65.068 0.104-36.811 31.839-63.58 65.62-64.241 l 55.143,0.00 c 1.838-10.845 5.422-20.679 10.753-29.501 -3.089-22.675 3.98-44.905 17.646-60.933 7.499-130.88 178.962-53.231 243.179-51.283 l 86.85,0.00 C 498.084,33.306 511.775,48.45 512.00,65.221 z m -118.281,0.00 c -51.381-1.106 -226.948-78.788 -210.094,32.534 -18.579,10.014 -25.728,36.815 -14.337,53.764 -17.308,17.069 -22.237,38.513 -5.514,55.418 -16.543,0.00 -32.902,0.092 -49.077,0.276 -16.175,0.184 -32.534,0.276 -49.077,0.276 -18.931,0.398 -32.052,14.288 -32.258,30.88 0.432,19.616 15.323,32.058 32.258,32.258 64.164,0.003 127.416,0.545 186.934,0.551 -5.356,42.992 -56.648,101.37 -4.274,135.237 8.385,4.118 15.09,5.866 23.849,4.274 1.47-0.735 2.298-1.47 2.481-2.206 0.184-0.735 0.46-1.93 0.827-3.584 5.566-34.078 10.761-68.152 37.221-90.71 29.125-22.333 46.299-57.493 79.681-71.686 l 1.379,0.00 z"  />
<glyph unicode="&#xe08e;" d="M0.00,1020.362,m 97.221-540.362 177.284,0.00 c 18.762-0.935 32.309-16.123 32.534-32.81 l 0.00-79.406 c 17.431-22.697 41.623-38.783 59.141-60.657 6.158-7.72 13.005-13.694 20.541-17.921 27.00-13.744 58.434-5.417 79.957-24.952 16.846-39.257 -6.72-86.285 -43.701-99.533 -30.199-10.413 -60.316-3.435 -86.988,9.512 0.077-46.872 -0.302-93.743 -0.551-140.614 -2.849-38.158 -28.54-65.366 -65.068-65.62 -36.811,0.104 -63.58,31.839 -64.241,65.62 l 0.00,55.143 c -10.845,1.838 -20.679,5.422 -29.501,10.753 -22.675-3.089 -44.905,3.98 -60.933,17.646 C -15.186,124.66 62.463,296.123 64.412,360.34 l 0.00,86.85 c 0.894,18.893 16.038,32.585 32.81,32.81 z m 0.00-118.281 c -1.106-51.381 -78.788-226.948 32.534-210.094 10.014-18.579 36.815-25.728 53.764-14.337 17.069-17.308 38.513-22.237 55.418-5.514 0.00-16.543 0.092-32.902 0.276-49.077 0.184-16.175 0.276-32.534 0.276-49.077 0.398-18.931 14.288-32.052 30.88-32.258 19.616,0.432 32.058,15.323 32.258,32.258 0.003,64.164 0.545,127.416 0.551,186.934 42.992-5.356 101.37-56.648 135.237-4.274 4.118,8.385 5.866,15.09 4.274,23.849 -0.735,1.47 -1.47,2.298 -2.206,2.481 -0.735,0.184 -1.93,0.46 -3.584,0.827 -34.078,5.566 -68.152,10.761 -90.71,37.221 -22.333,29.125 -57.493,46.299 -71.686,79.681 l 0.00,1.379 z"  />
</font>
</defs>
</svg>
